Welcome Guest ( Log In | Register )

> Kommodus & Valac - Eclipsing Honour And Decay [split] (2020), Raw Black Metal | Raw Black Metal (D)(D7)
post Nov 28 2020, 07:54:22
Post #1

Правь статус, ####!111
**************
Group: Металариец
Posts: 2,280
Releases: 1833
From: Praha
On Forums: 7 years 2 months
Thanks: 48503 time(s)
Czech Republic


(IMG:http://metalarea.org/images/audiocovers/2020_Nov/acov_tid344457_thumb.jpg)

*Artist: Kommodus & Valac
*Album: Eclipsing Honour And Decay [split]
*Year: 2020
*Genre: Raw Black Metal | Raw Black Metal
*Country: Australia (IMG:http://metalarea.org/forum/style_images/flags/Australia.png) | United States (IMG:http://metalarea.org/forum/style_images/flags/United%20States.png)
*Format: mp3@CBR320kbps
*Size: 97MB

Tracklist:
Kommodus:
1. Pyrrhic Victory 07:11
2. Rottweiler 06:00
3. Dethroned Emperor (Celtic Frost) 04:46
Valac:
4. Hollow Cries of Mercy 05:00
5. Discarded Effigies 04:26
6. The Bitter Emblem of Dissolve (Leviathan) 05:57
******************************
Total playing time: 33:20




Extended info
Appalachian Noise Records


Technical info
(IMG:http://metalarea.org/images/spectrogram/2020_Nov/e3a8fa9cedb87bc5fb98df9817c47447.png)
Input File: 02. Kommodus - Rottweiler.mp3
Channels : 2
Sample Rate : 44100
Precision : 16-bit
Duration : 00:06:00.77 = 15910001 samples = 27057.8 CDDA sectors
File Size : 14.5M
Bit Rate : 322k
Sample Encoding: MPEG audio (layer I, II or III)
Comments :
Title=Rottweiler
Artist=Kommodus
Album=Eclipsing Honour And Decay
Tracknumber=02/06
Year=2020
Genre=Black Metal



Register


Go to the top of the page
  Insert nick Quick quote
+Quote Post
 
Start new topic
Replies (1 - 1)
post Nov 28 2020, 17:39:34
Post #2

Три Литра
***
Group: Завсегдатай
Posts: 222
Releases: 0
On Forums: 9 months 4 weeks
Thanks: 161 time(s)
Unknown


Kommodus - потихоньку начинают скатываться из андеграундного качества в угоду количеству. Пока звучит, все еще на им же обозначенном уровне, но трещина пошла.
Valac - очередной Raw Black Metal культ изданный микро тиражами, которые мгновенно становятся так называемыми "артефактами" в среде собирателей всякого подобного стаффа. На самом деле все звучит на уровне выбранной ниши - сырого звука и атмосферы тотальной мрачности.
Итог: по музыкальному материалу 4/5.
А по хайповости 666/10 для [мат->бан]еров-собирателей (IMG:style_emoticons/default/21.gif)
Go to the top of the page
  Insert nick Quick quote
+Quote Post

Reply to this topicStart new topic
1 User(s) are reading this topic (1 Guests and 0 Anonymous Users)
0 Members:

 



- Lo-Fi Version Support form
Copyrights and abuse reports form
Time is now: 25th June 2021 - 10:34:45