Welcome Guest ( Log In | Register )

> Necromancer - Pattern Of Repulse (2020), Death/Thrash Metal (D)
post Nov 30 2020, 06:33:34
Post #1

Правь статус, ####!111
**************
Group: Металариец
Posts: 26,672
Releases: 19234
From: Г.Харьков
On Forums: 9 years 2 months
Thanks: 384908 time(s)
Unknown


(IMG:https://metalarea.org/images/audiocovers/2020_Nov/acov_tid344563_thumb.jpg)

*Artist: Necromancer
*Album: Pattern Of Repulse
*Year: 2020
*Genre: Death/Thrash Metal
*Country: Brazil (IMG:https://metalarea.org/forum/style_images/flags/Brazil.png)
*Format: mp3@CBR320kbps
*Size: 91MB

Tracklist:
1. Necrobiosis
2. The Cloak of Impunity
3. Blood Countess
4. The Absence of God
5. The Riders of Apocalypse
6. All the Pain ( No Regret )
7. The Order of the Dragon
8. Terminal State
9. The Seals of Misfortune
10. Flagellum Dei (The Scourge of God)
******************************
Total playing time: 38:10



Extended info
Luiz Fernando Guitars (1986-1988, 1993-1997, 2005, 2010, 2012-present)
Marcelo Coutinho Vocals (1986-1988, 1993-1997, 2005, 2010, 2012-present)
See also: Absolem
Gustavo Fernandez Bass (1987-1988, 2012-present)
Vinicius Cavalcanti Drums (2015-present)
See also: Enterro
Eduardo "Dek" Guitars (2020-present)
See also: ex-Shadow Zone



Technical info
(IMG:https://metalarea.org/images/spectrogram/2020_Nov/894d50e2adad08b2aa9025edbe797c82.png)
Input File: 08 - Terminal State.mp3
Channels : 2
Sample Rate : 44100
Precision : 16-bit
Duration : 00:05:06.04 = 13496408 samples = 22953.1 CDDA sectors
File Size : 12.6M
Bit Rate : 329k
Sample Encoding: MPEG audio (layer I, II or III)
Comments :
Title=Terminal State
Artist=Necromancer
Album=Pattern of Repulse
Tracknumber=8
Year=2020



Register


Go to the top of the page
  Insert nick Quick quote
+Quote Post
 
Start new topic
Replies (1 - 1)
post Jul 22 2021, 16:32:54
Post #2

Old School Metal
**************
Group: Металариец
Posts: 3,950
Releases: 0
From: г. Минск
On Forums: 12 years 4 months
Thanks: 9280 time(s)
Belarus



Necromancer - Pattern Of Repulse (2020)


(IMG:https://a.radikal.ru/a32/2107/5a/33bbf1f73908.jpg)


Format: mp3@320kbps (Lame 3.93.1)
Register

Lossless: FLAC (tracks)
Register



Thanks:
(1) Deni,
Go to the top of the page
  Insert nick Quick quote
+Quote Post

Reply to this topicStart new topic
2 User(s) are reading this topic (2 Guests and 0 Anonymous Users)
0 Members:

 



- Lo-Fi Version Support form
Copyrights and abuse reports form
Time is now: 27th July 2021 - 19:11:56