Welcome Guest ( Log In | Register )

> Untrodden - Mortal Departure (2020), Death Metal
post Dec 3 2020, 10:53:18
Post #1

MDM-Thrash Metal
**************
Group: Металариец
Posts: 10,327
Releases: 1226
From: Одесса
On Forums: 13 years 9 months
Thanks: 30053 time(s)
Ukraine


(IMG:http://metalarea.org/images/audiocovers/2020_Dec/acov_tid344651_thumb.jpg)

*Artist: Untrodden
*Album: Mortal Departure
*Year: 2020
*Genre: Death Metal
*Country: Sweden (IMG:http://metalarea.org/forum/style_images/flags/Sweden.png)
*Format: mp3@CBR320kbps
*Size: 82MB

Tracklist:
1. Invocation 02:53
2. Die in Obscurity 03:39
3. Suffering of the Mind 04:12
4. Barbaric Wisdom 03:43
5. Eyes of Doom 03:18
6. Demonic Possession 02:53
7. Battlegrounds 03:38
8. Undead State (Separate the Fools) 03:38
9. Departure 04:06
******************************
Total playing time: 32:00



Extended info
U All instruments, Vocals


Technical info
(IMG:http://metalarea.org/images/spectrogram/2020_Dec/9dba315c471c903104aba73a37d60bef.png)
Input File: Untrodden - Mortal Departure - 02 Die in Obscurity.mp3
Channels : 2
Sample Rate : 44100
Precision : 16-bit
Duration : 00:03:39.86 = 9695738 samples = 16489.4 CDDA sectors
File Size : 8.96M
Bit Rate : 326k
Sample Encoding: MPEG audio (layer I, II or III)
Comments :
Title=Die in Obscurity
Artist=Untrodden
Album=Mortal Departure
Tracknumber=2
Year=2020



Register


Go to the top of the page
  Insert nick Quick quote
+Quote Post
 
Start new topic
Replies (1 - 2)
post Dec 15 2020, 16:58:47
Post #2

Туфлєблек то є файно
**************
Group: Металариец
Posts: 2,372
Releases: 0
From: Україна
On Forums: 12 years 4 months
Thanks: 1857 time(s)
Ukraine


Ух-ты-шка, очень интересно, как то сразу зацепило.
Бассушка мурлыкающая, гроул смачный, соляги, да классно блин.
Приятный ванмэн бэнд.
Завтра будет окошко и я ворвусь поплотней.
...блин, бассуха ням-ням (IMG:style_emoticons/default/pray.gif) (IMG:style_emoticons/default/pray.gif) (IMG:style_emoticons/default/pray.gif)
Go to the top of the page
  Insert nick Quick quote
+Quote Post
post May 4 2021, 20:44:34
Post #3

Правь статус, ####!111
**************
Group: Металариец
Posts: 2,455
Releases: 0
On Forums: 6 years 1 week
Thanks: 3130 time(s)
Russian Federation


Из сети, 320
Register


Thanks:
Go to the top of the page
  Insert nick Quick quote
+Quote Post

Reply to this topicStart new topic
1 User(s) are reading this topic (1 Guests and 0 Anonymous Users)
0 Members:

 



- Lo-Fi Version Support form
Copyrights and abuse reports form
Time is now: 16th May 2021 - 18:17:49