Welcome Guest ( Log In | Register )

> The Deviant - Rotting Dreams Of Carrion (2020), Black/Death Metal
post Dec 3 2020, 12:32:49
Post #1

Правь статус, ####!111
**************
Group: Металариец
Posts: 29,341
Releases: 21544
From: Г.Харьков
On Forums: 10 years 2 weeks
Thanks: 445025 time(s)
Unknown


(IMG:https://metalarea.org/images/audiocovers/2020_Dec/acov_tid344664_thumb.jpg)

*Artist: The Deviant
*Album: Rotting Dreams Of Carrion
*Year: 2020
*Genre: Black/Death Metal
*Country: Norway (IMG:https://metalarea.org/forum/style_images/flags/Norway.png)
*Format: mp3@CBR320kbps
*Size: 81MB

Tracklist:
1. Atomic Dreams 01:29
2. Atomic Revolt 04:18
3. Son of Dawn 06:02
4. Torment Inferno 06:11
5. It Has a Name 04:02
6. Martyrdom 03:45
7. Iron Vultures 04:54
8. Enter the Storm 04:30
******************************
Total playing time: 35:11




Extended info
Bomber Drums
See also: ex-122 Stab Wounds, ex-Mörkemen
Violator Guitars (2003-present)
See also: ex-122 Stab Wounds, ex-Malpractice, ex-Agony
Dolgar Vocals, Bass (2003-present)
See also: ex-Forlorn, ex-Twin Obscenity, ex-Gehenna, ex-Mörkemen


Technical info
(IMG:https://metalarea.org/images/spectrogram/2020_Dec/a00e0f91859a5b4da330e2180f344574.png)
Input File: 07. Iron Vultures.mp3
Channels : 2
Sample Rate : 44100
Precision : 16-bit
Duration : 00:00:00.29 = 12965 samples = 22.0493 CDDA sectors
File Size : 11.8M
Bit Rate : 322M
Sample Encoding: MPEG audio (layer I, II or III)
Comments :
Title=Iron Vultures
Artist=The Deviant
Album=Rotting Dreams of Carrion
Tracknumber=7
Year=2020
Genre=Black Metal
Discnumber=1



Register


Go to the top of the page
  Insert nick Quick quote
+Quote Post
 
Start new topic
Replies (1 - 6)
post Dec 4 2020, 15:35:21
Post #2

Четыре Литра
****
Group: Металариец
Posts: 376
Releases: 3
From: минск сити
On Forums: 12 years 11 months
Thanks: 352 time(s)
Belarus


Послушал немного на бэндкэмпе... какой-то сладжевый Aeternus.


Thanks:
(1) Storky,
Go to the top of the page
  Insert nick Quick quote
+Quote Post
post Dec 10 2020, 14:21:50
Post #3

Шесть Литров
******
Group: Металариец
Posts: 674
Releases: 0
From: Vilnius
On Forums: 15 years 3 months
Thanks: 240 time(s)
Lithuania


По началу неплохо, но после второго прослушивания решил стереть, Технически все как бэ норм, но есть вторичность и какой то своей изюминки я тут не нашел
Go to the top of the page
  Insert nick Quick quote
+Quote Post
post Jan 27 2021, 17:10:11
Post #4

Литр
*
Group: Подсевший
Posts: 76
Releases: 0
On Forums: 4 years 6 months
Thanks: 23 time(s)
Ukraine


ЦИТАТА(sabr @ Dec 10 2020, 15:21:50) *
По началу неплохо, но после второго прослушивания решил стереть, Технически все как бэ норм, но есть вторичность и какой то своей изюминки я тут не нашел


За такие слова убивают нахрен. Ну а если серьезно зря ты так предвзято. Послушай обязательно Ravenous Deathworship (2005) и Lightning Bolts (2018). Вот они реально топовые. А этот честно признаюсь, самому чет не зашел. Только пару телег вкатило на постоянное прослушивание: Atomic Revolt и It Has a Name.

Так же зацени мою личную подборку в вк треков Девиант, самых лучших. https://vk.com/wall309534539_5620. Плюс в том же вк в моей группе ознакомься с предыдущими альбомами https://vk.cc/bXGYH6.


Thanks:
Go to the top of the page
  Insert nick Quick quote
+Quote Post
post Jan 29 2021, 04:11:44
Post #5

Правь статус, ####!111
Group Icon
Group: S-moderation team
Posts: 22,058
Releases: 1443
On Forums: 11 years 3 months
Thanks: 109870 time(s)
Unknown


Register


Go to the top of the page
  Insert nick Quick quote
+Quote Post
post Jan 29 2021, 06:25:08
Post #6

ужасный хер в джинсовой куртке
**************
Group: Металариец
Posts: 5,641
Releases: 0
On Forums: 6 years 3 months
Thanks: 3604 time(s)
Unknown


ЦИТАТА(SatanMy_Master @ 27th January 2021 - 21:10:11) *
За такие слова убивают нахрен.

особенно в интернете (IMG:style_emoticons/default/1488.gif)


Thanks:
(1) Occultas,
Go to the top of the page
  Insert nick Quick quote
+Quote Post
post Nov 24 2021, 20:12:10
Post #7

железный нечеловек
**********
Group: Металариец
Posts: 1,406
Releases: 3
From: Уфа
On Forums: 13 years 1 month
Thanks: 517 time(s)
Russian Federation


ЦИТАТА(sabr @ Dec 10 2020, 18:21:50) *
По началу неплохо, но после второго прослушивания решил стереть


Мне наоборот только после второго прослушивания начал нравиться
Go to the top of the page
  Insert nick Quick quote
+Quote Post

Reply to this topicStart new topic
1 User(s) are reading this topic (1 Guests and 0 Anonymous Users)
0 Members:

 



- Lo-Fi Version Support form
Copyrights and abuse reports form
Time is now: 29th May 2022 - 07:26:17