Welcome Guest ( Log In | Register )

> И неформату есть предел.

Рэп/хип-хоп/шансон/поп удаляются. Для них есть свои порталы.

> Mansur - Temple (2020), Electronic/Ambient/Experimental
post Dec 3 2020, 18:41:01
Post #1

Пять Литров
*****
Group: Металариец
Posts: 434
Releases: 20
From: Санкт-Петербург
On Forums: 14 years 8 months
Thanks: 1436 time(s)
Russian Federation


(IMG:http://metalarea.org/images/audiocovers/2020_Dec/acov_tid344687_thumb.jpg)

*Artist: Mansur
*Album: Temple
*Year: 2020
*Genre: Electronic/Ambient/Experimental/Ethnic
*Country: International (IMG:http://metalarea.org/forum/style_images/flags/International.png)
*Format: mp3@CBR320kbps
*Size: 56MB

Tracklist:
01. Temple 05:10
02. Disciples 05:24
03. Temple Revisited I 04:27
04. Pentatonic Ruins 04:59
05. Leyenda 04:08
******************************
Total playing time: 24:07



Extended info
MANSUR is the newly initiated project by Jason Köhnen (Celestial Season, Bong-Ra, ex-The Kilimanjaro Darkjazz Ensemble, ex-The Mount Fuji Doomjazz Corporation) joined by Dimitry El-Demerdashi (ex-Phurpa) and introducing Martina Horváth on vocals. The sound of MANSUR navigates between the waters of musical fantasy and reality - it morphs and blends traditional instrumentation with modern day electronica.

Jason Köhnen - various
Dimitry El Demerdashi - oud
Martina Horváth - vocals
Gadjo Dilo Vendigo - duduk


Technical info
(IMG:http://metalarea.org/images/spectrogram/2020_Dec/912d1da7eb07d36fd8353b5e2de94b19.png)
Input File: 02 - Disciples.mp3
Channels : 2
Sample Rate : 44100
Precision : 16-bit
Duration : 00:05:24.10 = 14292634 samples = 24307.2 CDDA sectors
File Size : 13.2M
Bit Rate : 325k
Sample Encoding: MPEG audio (layer I, II or III)
Comments :
Title=Disciples
Artist=Mansur
Album=Temple
Tracknumber=02
Year=2020
Genre=Electronic/Ambient/Experimental/Dark Jazz



Register


Go to the top of the page
  Insert nick Quick quote
+Quote Post
 
Start new topic
Replies (1 - 4)
post Dec 4 2020, 07:44:26
Post #2

Два Литра
**
Group: Завсегдатай
Posts: 180
Releases: 0
From: Чуркестан
On Forums: 13 years 4 months
Thanks: 18 time(s)
Uzbekistan


В тэги добавить "этник".
Go to the top of the page
  Insert nick Quick quote
+Quote Post
post Dec 4 2020, 08:40:51
Post #3

Пять Литров
*****
Group: Металариец
Posts: 434
Releases: 20
From: Санкт-Петербург
On Forums: 14 years 8 months
Thanks: 1436 time(s)
Russian Federation


ЦИТАТА(zoog @ 4th December 2020 - 09:44:26) *
В тэги добавить "этник".

Кстати, можно, но как? У меня почему-то нет кнопки Edit в основном сообщении, а раньше была, я даже чего-то там редактировал. Теперь в ответах в темах она есть, а в первых сообщениях нет, что за дела?
Go to the top of the page
  Insert nick Quick quote
+Quote Post
post Dec 5 2020, 18:42:22
Post #4

Четыре Литра
****
Group: Металариец
Posts: 361
Releases: 0
On Forums: 11 years 7 months
Thanks: 102 time(s)
Russian Federation


Пож, дайте другой обменник
Go to the top of the page
  Insert nick Quick quote
+Quote Post
post Dec 6 2020, 20:56:16
Post #5

Пять Литров
*****
Group: Металариец
Posts: 434
Releases: 20
From: Санкт-Петербург
On Forums: 14 years 8 months
Thanks: 1436 time(s)
Russian Federation


Register


Thanks:
(1) KKK1488,
Go to the top of the page
  Insert nick Quick quote
+Quote Post

Reply to this topicStart new topic
1 User(s) are reading this topic (1 Guests and 0 Anonymous Users)
0 Members:

 



- Lo-Fi Version Support form
Copyrights and abuse reports form
Time is now: 22nd January 2021 - 10:06:26