Welcome Guest ( Log In | Register )

> И неформату есть предел.

Рэп/хип-хоп/шансон/поп удаляются. Для них есть свои порталы.

> Zno - -I- (2010), Industrial/Ambient
post Dec 4 2020, 21:41:42
Post #1

Восемь Литров
********
Group: Металариец
Posts: 848
Releases: 36
From: Санкт-Петербург
On Forums: 15 years 5 months
Thanks: 2482 time(s)
Russian Federation


(IMG:http://metalarea.org/images/audiocovers/2020_Dec/acov_tid344749_thumb.jpg)

*Artist: Zno
*Album: -I-
*Year: 2010
*Genre: Industrial/Illbient
*Country: France (IMG:http://metalarea.org/forum/style_images/flags/France.png)
*Format: mp3@CBR320kbps
*Size: 157MB

Tracklist:
01. Defy 07:04
02. Suprahead 05:28
03. Golden Cage 04:16
04. Gliff 08:30
05. Trunkated Man 03:46
06. Revolutions 03:06
07. Something Else 05:00
08. Compress 05:00
09. Depth Of Humanity 04:44
10. Hypnosis 05:52
11. A Piece Of Me 14:26
******************************
Total playing time: 1:07:13



Extended info
Группа ZNO была образована в 2003 году и достойно представляет нойз-индустриальную сцену Страсбурга, Франция. На музыкантов оказали влияния такие тяжеловесные формации метал-эмбиент-нойз-индустриально-дабового сектора, как GODFLESH, TECHNO ANIMAL, DALEK, SCORN, MINISTRY, FEAR FACTORY, MENTAL DESTRUCTION, LE DIKTAT, а также саундтрек к японскому аниме "Акира", который почитают многие старые и молодые индустриальщики. Новый альбом ZNO мне рекомендовали к прослушиванию музыканты группы STUPRE, за что им выражается благодарность. Интересно выстроенные композиционно, мрачные, тягучие, психоделические, по-своему красивые (послушайте, например, пятую вещь "Trankated Man" или финальную партитуру "A Piece Of Me"… это же прекрасно, черт побери!) и местами немного пугающие инструментальные треки "-I-" начнут медленно пожирать ваш мозг или затуманивать сознание уже с первых минут. Раскачивающиеся и неспешно ползущие тяжелые и мощные биты в периодическом обрамлении странных мужских бормотаний, выкриков, заклинаний и эхо, холодного и искореженного, отливающего металлическими красками трибально-ритуального нойз-индастриэла, величественных и гипнотизирующих глубоких мелодий, некоего подобия завывающих хоралов и один раз ("Compress") истошного гроулингового пения вокалиста (который по совместительству вокализует в death-метал группе ABSURDITY) четко делают свое черное дело. Атмосфера альбома реально засасывает, приковывает к себе и держит в напряжении. Музыку ZNO нельзя назвать фоновой и пассивной, несмотря на ее инструментальный характер и первоклассные атмосферные характеристики. Группе также чужды танцпольные страсти, дешевые понты и коммерческие подходы. Музыканты очень увлечены созданием страшной шизофренической и клинической атмосферы, которую усугубляют давящими и гнетущими ритмическими образцами, потусторонними звуками, острыми гитарными рифами и дроновскими громыханиями, таинственными оркестровками и монотонными клавишными мелодиями. В композициях "Gliff", "Suprahead" и "Hypnosis" ритмический драйв достигает максимума (вот бы больше было таких вещей на альбоме), а уже упомянутая агрессивная песня "Compress" наверняка доставит кайф open minded металхэдам. Общая картина в итоге вырисовывается довольно неплохая, а к минусам избранной ZNO звуковой концепции можно отнести разве что чрезмерное увлечение разговорами и, быть может, иногда излишнюю эпичность и монотонность. Альбом "-I-" можно рекомендовать к прослушиваниям всем поклонникам экстремальной, концептуальной, ритмичной и мрачной постиндустриальной музыки. Французы продолжают радовать и блюсти собственный неповторимый, мелодичный и суровый стиль. [8 баллов]
(с) vAlien/DJ Commando LABELLA


Technical info
(IMG:http://metalarea.org/images/spectrogram/2020_Dec/9c447ae26843a17acfb8b96d748cfeff.png)
Input File: 01 - Defy.mp3
Channels : 2
Sample Rate : 44100
Precision : 16-bit
Duration : 00:07:04.18 = 18706162 samples = 31813.2 CDDA sectors
File Size : 17.0M
Bit Rate : 321k
Sample Encoding: MPEG audio (layer I, II or III)
Comments :
Title=Defy
Artist=zno
Album=-I-
Tracknumber=01
Year=2010
Genre=Industrial/Illbient



Register


Go to the top of the page
  Insert nick Quick quote
+Quote Post
 
Start new topic
Replies (1 - 1)
post Feb 5 2021, 01:45:57
Post #2

грызущие вместе
******
Group: Металариец
Posts: 543
Releases: 0
From: Moscow/MO
On Forums: 14 years 11 months
Thanks: 189 time(s)
Russian Federation


Местами очень напоминает саундтреки первых Command & Conquer от Фрэнка Клепаки, особенно "Suprahead" и "Compress" (IMG:style_emoticons/default/hmm.gif)
Go to the top of the page
  Insert nick Quick quote
+Quote Post

Reply to this topicStart new topic
1 User(s) are reading this topic (1 Guests and 0 Anonymous Users)
0 Members:

 



- Lo-Fi Version Support form
Copyrights and abuse reports form
Time is now: 21st October 2021 - 21:08:29