Welcome Guest ( Log In | Register )

> Druon Antigon - Desontstijging (2020), Black Metal
post Dec 7 2020, 10:07:07
Post #1

Время Мары
**************
Group: Металариец
Posts: 3,242
Releases: 473
From: Харьков
On Forums: 12 years 1 month
Thanks: 9717 time(s)
Ukraine


(IMG:http://metalarea.org/images/audiocovers/2020_Dec/acov_tid344801_thumb.jpg)

*Artist: Druon Antigon
*Album: Desontstijging
*Year: 2020
*Genre: Black Metal
*Country: United Kingdom (IMG:http://metalarea.org/forum/style_images/flags/United%20Kingdom.png)
*Format: mp3@CBR320kbps
*Size: 91MB

Tracklist:
01. Zinloos 10:13
02. Herrijzenis 08:45
03. Like Gods 07:36
04. Weavess 12:46
******************************
Total playing time: 39:20

Technical info
(IMG:http://metalarea.org/images/spectrogram/2020_Dec/d526dd2f23314bc5e717efc949deb3ad.png)
Input File: 03 - Like Gods.mp3
Channels : 2
Sample Rate : 44100
Precision : 16-bit
Duration : 00:07:36.20 = 20118596 samples = 34215.3 CDDA sectors
File Size : 18.4M
Bit Rate : 322k
Sample Encoding: MPEG audio (layer I, II or III)
Comments :
Title=Like Gods
Artist=Druon Antigon
Album=Desontstijging
Tracknumber=3
Year=2020
Discnumber=1/1



Register


Go to the top of the page
  Insert nick Quick quote
+Quote Post
 
Start new topic
Replies (1 - 1)
post Dec 8 2020, 04:04:35
Post #2

Маньяк
**********
Group: Металариец
Posts: 1,325
Releases: 470
On Forums: 10 years 8 months
Thanks: 10099 time(s)
Italy




Go to the top of the page
  Insert nick Quick quote
+Quote Post

Reply to this topicStart new topic
1 User(s) are reading this topic (1 Guests and 0 Anonymous Users)
0 Members:

 



- Lo-Fi Version Support form
Copyrights and abuse reports form
Time is now: 26th July 2021 - 20:04:41