Welcome Guest ( Log In | Register )

 
Reply to this topicStart new topic
> Mangled Hands - Stone Cold Broken [single] (2020), Thrash Metal
post Dec 8 2020, 03:42:52
Post #1

Правь статус, ####!111
**************
Group: Металариец
Posts: 26,728
Releases: 19290
From: Г.Харьков
On Forums: 9 years 2 months
Thanks: 386126 time(s)
Unknown


(IMG:https://metalarea.org/images/audiocovers/2020_Dec/acov_tid344821_thumb.jpg)

*Artist: Mangled Hands
*Album: Stone Cold Broken [single]
*Year: 2020
*Genre: Thrash Metal
*Country: Finland (IMG:https://metalarea.org/forum/style_images/flags/Finland.png)
*Format: mp3@CBR320kbps
*Size: 24MB

Tracklist:
1. Stone Cold Broken 05:21
2. Survivors Zero 04:44
******************************
Total playing time: 10:05




Extended info
Olli Törrönen Drums
Antti Sallantaus Guitars, Vocals
Matti Kotkavuori Guitars, Vocals


Technical info
(IMG:https://metalarea.org/images/spectrogram/2020_Dec/8cd2846188562f9dae605801739d8175.png)
Input File: 02 Survivors Zero.mp3
Channels : 2
Sample Rate : 44100
Precision : 16-bit
Duration : 00:04:44.23 = 12534411 samples = 21317 CDDA sectors
File Size : 11.8M
Bit Rate : 333k
Sample Encoding: MPEG audio (layer I, II or III)
Comments :
Title=Survivors Zero
Artist=Mangled Hands
Album=Stone Cold Broken
Tracknumber=2/2
Year=2020-20-20
Genre=Metal
Discnumber=1/1



Register


Go to the top of the page
  Insert nick Quick quote
+Quote Post

Reply to this topicStart new topic
1 User(s) are reading this topic (1 Guests and 0 Anonymous Users)
0 Members:

 



- Lo-Fi Version Support form
Copyrights and abuse reports form
Time is now: 1st August 2021 - 11:40:22