Welcome Guest ( Log In | Register )

> Forum rules / Правила раздела

Here go releases which can't go to New releases forums due lack of information, stolen links or incorrect data and just founded in other sites links with minimum info. Reissue of this releases through Add release form with added/corrected data, info and own links highly welcomed.

Сюда уходят релизы, не пропущенные в основные релизные форумы по причинам отсутствия, недостаточности или неверности/некорректности сопровождающей информации, содержащие ссылки, указывающие на файлы, залитые не автором темы, а так же просто найденные где-то ссылки с минимумом информации. Переоформление тем отсюда через форму Добавления релиза с перезаливкой ссылок крайне приветствуется.

> Nihil Invocation & Drug Darkness - Deathly Hand & Spirits Unredeemed [split] (2020), Black Metal | Raw Black Metal (D)(D)
post Dec 8 2020, 20:23:11
Post #1

Malum dominus omnium
****
Group: Металариец
Posts: 366
Releases: 276
On Forums: 1 year 4 months
Thanks: 5561 time(s)
Vatican City


(IMG:https://metalarea.org/images/audiocovers/2020_Dec/acov_tid344853_thumb.jpg)

*Artist: Nihil Invocation & Drug Darkness
*Album: Deathly Hand & Spirits Unredeemed [split]
*Year: 2020
*Genre: Black Metal | Raw Black Metal
*Country: United States (IMG:https://metalarea.org/forum/style_images/flags/United%20States.png) | United States (IMG:https://metalarea.org/forum/style_images/flags/United%20States.png)
*Format: mp3@CBR320kbps
*Size: 61MB

Tracklist:
Side A
1. Nihil Invocation - Dead Seed Immersed in Sorrows Glory 03:19
2. Nihil Invocation - Deathly Hand and Spirit Unredeemed 02:51
3. Nihil Invocation - None Beside to Cherish Lonely Gardens 02:21
4. Nihil Invocation - Тролль 02:33
5. Drug Darkness - Hallucinations in the Woods (Drug Test Intro) 02:07
Side B
6. Drug Darkness - Falling into Dissociation Holes 02:07
7. Drug Darkness - Acid Test in a Wonderous Blackvoid 03:51
8. Drug Darkness - Junkie-Wahnsinn! 06:56
******************************
Total playing time: 26:05

Metal Archives

(IMG:https://metalarea.org/images/youtube.png)

Extended info
Black cassette tape with stickers. Comes with a 4-panel J-card.
Limited to 66 hand numbered copies.


Technical info
(IMG:https://metalarea.org/images/spectrogram/2020_Dec/d31ab9ab6b94321c8b8bc5c155698a17.png)
Input File: 01 Nihil Invocation - Dead Seed Immersed in Sorrow\'s Glory.mp3
Channels : 2
Sample Rate : 44100
Precision : 16-bit
Duration : 00:03:20.97 = 8862821 samples = 15072.8 CDDA sectors
File Size : 8.04M
Bit Rate : 320k
Sample Encoding: MPEG audio (layer I, II or III)
Comments :
Title=Dead Seed Immersed in Sorrow's Glory
Artist=Nihil Invocation/Drug Darkness
Album=Deathly Hand & Spirits Unredeemed
Tracknumber=1
Year=2020
Genre=Raw Black Metal



Register


Go to the top of the page
  Insert nick Quick quote
+Quote Post
 
Start new topic
Replies (1 - 2)
post Dec 9 2020, 00:57:02
Post #2

\m/
Group Icon
Group: S-moderation team
Posts: 7,932
Releases: 19
From: Петропавловск-Камчатский
On Forums: 12 years 1 week
Thanks: 7984 time(s)
Russian Federation



 ! 

Пример правильного оформления треклиста для сплита Kommodus & Valac - Eclipsing Honour And Decay [split] (2020)
 


Thanks:
(1) Cramloth,
Go to the top of the page
  Insert nick Quick quote
+Quote Post
post Dec 9 2020, 19:00:42
Post #3

Malum dominus omnium
****
Group: Металариец
Posts: 366
Releases: 276
On Forums: 1 year 4 months
Thanks: 5561 time(s)
Vatican City


QUOTE(DarkHorde @ Dec 8 2020, 23:57:02) *

Thanks I'll submit like that (IMG:style_emoticons/default/pleased.gif)
Go to the top of the page
  Insert nick Quick quote
+Quote Post

Reply to this topicStart new topic
2 User(s) are reading this topic (2 Guests and 0 Anonymous Users)
0 Members:

 



- Lo-Fi Version Support form
Copyrights and abuse reports form
Time is now: 25th June 2021 - 10:25:31