Welcome Guest ( Log In | Register )

> Epidemic Zone - Keep Away From Babies [ep] (1990), Death/Thrash Metal
post Dec 9 2020, 08:13:42
Post #1

Join my religion, or die
**************
Group: Металариец
Posts: 11,008
Releases: 1705
From: Питера
On Forums: 12 years 2 months
Thanks: 22577 time(s)
Russian Federation


(IMG:https://metalarea.org/images/audiocovers/2020_Dec/acov_tid344861_thumb.jpg)

*Artist: Epidemic Zone
*Album: Keep Away From Babies [ep]
*Year: 1990
*Genre: Death/Thrash Metal
*Country: Slovenia (IMG:https://metalarea.org/forum/style_images/flags/Slovenia.png)
*Format: mp3@CBR320kbps
*Size: 51MB

Tracklist:
01. Body Delay 02:52
02. Underself 03:25
03. Finger 03:06
04. Overdose System 03:20
05. Facted Face 03:53
06. Born Date 05:42
******************************
Total playing time: 22:18

Extended info
Инструментал



Technical info
(IMG:https://metalarea.org/images/spectrogram/2020_Dec/5ec77c027286c993ae6fd17adb06a53c.png)
Input File: 02 Underself.mp3
Channels : 2
Sample Rate : 44100
Precision : 16-bit
Duration : 00:03:25.13 = 9046145 samples = 15384.6 CDDA sectors
File Size : 8.29M
Bit Rate : 323k
Sample Encoding: MPEG audio (layer I, II or III)
Comments :
Title=Underself
Artist=Epidemic Zone
Album=1990 Keep Away From Babies
Tracknumber=02/06
Year=1990
Genre=Death-Thrash Metal



Register


Go to the top of the page
  Insert nick Quick quote
+Quote Post
 
Start new topic
Replies (1 - 1)
post Oct 13 2021, 23:15:44
Post #2

aggresive exumator!
**********
Group: Металариец
Posts: 1,390
Releases: 0
On Forums: 10 years 2 months
Thanks: 47 time(s)
Unknown


reupload please
Go to the top of the page
  Insert nick Quick quote
+Quote Post

Reply to this topicStart new topic
1 User(s) are reading this topic (1 Guests and 0 Anonymous Users)
0 Members:

 



- Lo-Fi Version Support form
Copyrights and abuse reports form
Time is now: 4th December 2021 - 23:14:47