Welcome Guest ( Log In | Register )

> Beltez - A Grey Chill And A Whisper (2020), Atmospheric Black Metal (D4)
post Dec 11 2020, 23:01:13
Post #1

Правь статус, ####!111
**************
Group: Металариец
Posts: 26,695
Releases: 19243
From: Г.Харьков
On Forums: 9 years 2 months
Thanks: 385141 time(s)
Unknown


(IMG:https://metalarea.org/images/audiocovers/2020_Dec/acov_tid344987_thumb.jpg)

*Artist: Beltez
*Album: A Grey Chill And A Whisper
*Year: 2020
*Genre: Atmospheric Black Metal
*Country: Germany (IMG:https://metalarea.org/forum/style_images/flags/Germany.png)
*Format: mp3@CBR320kbps
*Size: 273MB

Tracklist:
1. In Apathy and in Slumber 01:45 instrumental
2. The City Lies in Utter Silence 10:48
3. Black Banners 06:05
4. A Taste of Utter Extinction 09:49
5. The Unwedded Widow 06:39
6. From Sorrow into Darkness 01:30 instrumental
7. A Grey Chill and a Whisper 08:38
8. I May Be Damned but at Least I've Found You 14:13
9. We Remember to Remember 05:38
10. Black Banners - A Short Story By Ulrike Serowy - 01 - Black Banners 49:49
11. Black Banners - A Short Story By Ulrike Serowy - 02 - We Remember To Remember 05:30
******************************
Total playing time: 2:00:24





Extended info
C.U. Bass
D.K. Vocals, Guitars
See also: ex-Hordes of Loki, ex-Orkus, Sinister Rouge
J.K. Vocals, Guitars
See also: Killing Suzy, Damage Source (live), ex-Discouraged, ex-Orkus (live)
M.P. Vocals (2010-present)
See also: Alchera
Sebastian Drums (2018-present)
See also: Blasphemous Putrefaction, Genocide, Decibel Rebels, ex-Frosted Undergrowth, ex-Kaos Vortex, ex-Verheerer (live)


Technical info
(IMG:https://metalarea.org/images/spectrogram/2020_Dec/0b8f92ba461f7b98c827704a1d662e62.png)
Input File: 10 - Black Banners - A Short Story By Ulrike Serowy - 01 - Black Banners.mp3
Channels : 2
Sample Rate : 44100
Precision : 16-bit
Duration : 00:49:49.68 = 131844712 samples = 224226 CDDA sectors
File Size : 120M
Bit Rate : 320k
Sample Encoding: MPEG audio (layer I, II or III)
Comments :
Title=Black Banners-A Short Story By Ulrike Serowy - 01 - Black Banners
Artist=Beltez
Album=A Grey Chill and a Whisper
Tracknumber=10
Year=2020
Genre=Black Metal



Register


Go to the top of the page
  Insert nick Quick quote
+Quote Post
 
Start new topic
Replies (1 - 5)
post Dec 12 2020, 12:16:41
Post #2

Маньяк
**********
Group: Металариец
Posts: 1,427
Releases: 3
From: Новороссия
On Forums: 15 years 5 months
Thanks: 782 time(s)
Russian Federation


Спутал с немецким же Belmez'ом. Оказалось есть ещё и Beltez.
Go to the top of the page
  Insert nick Quick quote
+Quote Post
post Dec 12 2020, 14:16:28
Post #3

De Mysteriis Dom Sathanas
**************
Group: Металариец
Posts: 4,231
Releases: 63
From: Doom
On Forums: 13 years 2 weeks
Thanks: 3633 time(s)
Russian Federation


ЦИТАТА(Glioma @ Dec 12 2020, 14:16:41) *
Спутал с немецким же Belmez'ом. Оказалось есть ещё и Beltez.

Belmez давно почил и вряд ли возродится


Thanks:
(1) Glioma,
Go to the top of the page
  Insert nick Quick quote
+Quote Post
post Dec 12 2020, 15:55:18
Post #4

Common dweller of hell
**************
Group: Металариец
Posts: 3,880
Releases: 12
From: Dnipro
On Forums: 13 years 2 weeks
Thanks: 1524 time(s)
Ukraine


Так ведь вроде уже был этот альбом ранее. Видимо это та версия альбома где чувак в конце 50 минут сказку читает.

ЦИТАТА(Glioma @ Dec 12 2020, 13:16:41) *
Спутал с немецким же Belmez'ом. Оказалось есть ещё и Beltez.

Тот Belmez против этого Beltez как моська против слона. Beltez второй высоко качественнейший альбом выдает подряд.



Thanks:
(1) mardak666,
Go to the top of the page
  Insert nick Quick quote
+Quote Post
post Dec 25 2020, 12:55:56
Post #5

Сила Луны
*********
Group: Металариец
Posts: 934
Releases: 150
From: Кировск (Мурманская область)
On Forums: 12 years 6 months
Thanks: 4043 time(s)
Russian Federation


Очень круто. Смачно звучит. Хороший среднетемповый блацк.
Кого-то напоминает, но что-то не всплывает.
Go to the top of the page
  Insert nick Quick quote
+Quote Post
post Feb 16 2021, 08:13:44
Post #6

Самый Тихий Час
**************
Group: Металариец
Posts: 6,483
Releases: 6
On Forums: 11 years 8 months
Thanks: 3040 time(s)
Unknown


Превью зашло. Валят интересно.
Go to the top of the page
  Insert nick Quick quote
+Quote Post

Reply to this topicStart new topic
1 User(s) are reading this topic (1 Guests and 0 Anonymous Users)
0 Members:

 



- Lo-Fi Version Support form
Copyrights and abuse reports form
Time is now: 29th July 2021 - 01:16:55