Welcome Guest ( Log In | Register )

> Vormläss - Passacaglia (2020), Atmospheric Black/Doom/Heavy Metal
post Dec 14 2020, 08:11:20
Post #1

Правь статус, ####!111
**************
Group: Металариец
Posts: 4,435
Releases: 4073
From: Одесса
On Forums: 13 years 6 months
Thanks: 45275 time(s)
Ukraine


(IMG:http://metalarea.org/images/audiocovers/2020_Dec/acov_tid345065_thumb.jpg)

*Artist: Vormläss
*Album: Passacaglia
*Year: 2020
*Genre: Atmospheric Black/Doom/Heavy Metal
*Country: United States (IMG:http://metalarea.org/forum/style_images/flags/United%20States.png)
*Format: mp3@CBR320kbps
*Size: 64MB

Tracklist:
1. Hallowed Halls 03:06
2. Wicked Heart 04:01
3. Corroded 08:22
4. Intermezzo 01:36 instrumental
5. Reflection 04:41
6. Sleepers Awake 05:14
******************************
Total playing time: 27:00



Extended info
FLAC RIP


Technical info
(IMG:http://metalarea.org/images/spectrogram/2020_Dec/b0e718d96204a752e3ea2e3eda4c6bc6.png)
Input File: 02. Wicked Heart.mp3
Channels : 2
Sample Rate : 44100
Precision : 16-bit
Duration : 00:04:01.96 = 10670524 samples = 18147.1 CDDA sectors
File Size : 9.68M
Bit Rate : 320k
Sample Encoding: MPEG audio (layer I, II or III)
Comments :
Title=Wicked Heart
Artist=Vormlass
Album=Passacaglia
Tracknumber=2
Year=2020
Genre=Atmospheric Black/Doom/Heavy Metal



Register


Go to the top of the page
  Insert nick Quick quote
+Quote Post
 
Start new topic
Replies (1 - 3)
post Dec 15 2020, 18:13:23
Post #2

Мегаманьяк
***********
Group: Металариец
Posts: 1,514
Releases: 0
From: Russian Federation - St.Petersburg
On Forums: 12 years 9 months
Thanks: 414 time(s)
Russian Federation


Кхе-кхе, стесняюсь спросить, а в каком здесь треке можно послушать перечисленные муз направления?: Atmospheric Black/Doom/Heavy Metal (IMG:style_emoticons/default/hmm.gif)

Псы,
А тема кстати любопытная! (IMG:style_emoticons/default/smile4.gif)


Thanks:
(1) judaz,
Go to the top of the page
  Insert nick Quick quote
+Quote Post
post Dec 15 2020, 18:35:55
Post #3

Четыре Литра
****
Group: Металариец
Posts: 324
Releases: 0
From: минск сити
On Forums: 12 years 5 months
Thanks: 168 time(s)
Belarus


Тэги в bandcamp ближе к сути: deep purple/hard rock/iron maiden/pink floyd/uriah heep/heavy metal/prog rock/psychedelic.
Обложка, в стиле вырви глаз, напоминает логотип какой-нибудь христианской воскресной школы.


Thanks:
(1) judaz,
Go to the top of the page
  Insert nick Quick quote
+Quote Post
post Dec 15 2020, 19:33:05
Post #4

кручу наждак
**************
Group: Металариец
Posts: 5,264
Releases: 104
From: Самара
On Forums: 11 years 6 months
Thanks: 4209 time(s)
Russian Federation


Теги конечно ни в звезду, ни в красную армию.
Больше всего это напоминает Queens of the Stone Age, которые ударились в психоделию.
Go to the top of the page
  Insert nick Quick quote
+Quote Post

Reply to this topicStart new topic
2 User(s) are reading this topic (2 Guests and 0 Anonymous Users)
0 Members:

 



- Lo-Fi Version Support form
Copyrights and abuse reports form
Time is now: 6th December 2021 - 00:53:56