Welcome Guest ( Log In | Register )

> Grafskymf - Dräpt Af Myrens Rå [demo] (2020), Black Metal
post Dec 19 2020, 00:13:08
Post #1

Malum dominus omnium
****
Group: Металариец
Posts: 370
Releases: 279
On Forums: 1 year 6 months
Thanks: 5819 time(s)
Vatican City


(IMG:https://metalarea.org/images/audiocovers/2020_Dec/acov_tid345214_thumb.jpg)

*Artist: Grafskymf
*Album: Dräpt Af Myrens Rå [demo]
*Year: 2020
*Genre: Black Metal
*Country: Sweden (IMG:https://metalarea.org/forum/style_images/flags/Sweden.png)
*Format: mp3@CBR320kbps
*Size: 70MB

Tracklist:
1. Harg 02:12
2. Irrbloss Från Ättestupan 04:35
3. Mylingens Grift 07:24
4. Pesta 05:41
5. Vril 01:39
6. Dräpt Af Myrens Rå 08:34
******************************
Total playing time: 30:05

Bandcamp
(IMG:https://metalarea.org/images/youtube.png)

Extended info
Eerie and dense black metal conceptually regarding Swedish and Scandinavian folklore

Limited to 25 copies
NNP 2020


Technical info
(IMG:https://metalarea.org/images/spectrogram/2020_Dec/ae72a24d6e49cf21128d53a7c062a99e.png)
Input File: Grafskymf - 5 - Vril.mp3
Channels : 2
Sample Rate : 44100
Precision : 16-bit
Duration : 00:01:39.17 = 4373177 samples = 7437.38 CDDA sectors
File Size : 3.97M
Bit Rate : 320k
Sample Encoding: MPEG audio (layer I, II or III)
Comments :
Title=Vril
Album=Dräpt Af Myrens Rå
Tracknumber=5
Year=2020
Genre=Black Metal



Register


Go to the top of the page
  Insert nick Quick quote
+Quote Post
 
Start new topic
Replies (1 - 2)
post Dec 19 2020, 12:34:20
Post #2

Три Литра
***
Group: Завсегдатай
Posts: 269
Releases: 0
From: минск сити
On Forums: 12 years 2 months
Thanks: 111 time(s)
Belarus


Прикольная raw жужжалка, как будто отдрессированый комар мелодии пиликает, но зато с клавишами.
Go to the top of the page
  Insert nick Quick quote
+Quote Post
post Dec 21 2020, 11:57:10
Post #3

добрый мизантроп
**************
Group: Металариец
Posts: 2,371
Releases: 1
From: Менск
On Forums: 10 years 10 months
Thanks: 1075 time(s)
Madagascar


(IMG:style_emoticons/default/true_black.gif) (IMG:style_emoticons/default/true_black.gif)
Go to the top of the page
  Insert nick Quick quote
+Quote Post

Reply to this topicStart new topic
1 User(s) are reading this topic (1 Guests and 0 Anonymous Users)
0 Members:

 



- Lo-Fi Version Support form
Copyrights and abuse reports form
Time is now: 20th September 2021 - 22:08:43