Welcome Guest ( Log In | Register )

> Inhein - Богопадение (2020), Black Metal
post Dec 20 2020, 10:41:24
Post #1

Правь статус, ####!616
**************
Group: Металариец
Posts: 6,644
Releases: 5111
From: 55°35’N 38°08’E
On Forums: 13 years 3 weeks
Thanks: 94057 time(s)
Unknown


(IMG:https://metalarea.org/images/audiocovers/2020_Dec/acov_tid345255_thumb.jpg)

*Artist: Inhein
*Album: Богопадение
*Year: 2020
*Genre: Black Metal
*Country: Russian Federation (IMG:https://metalarea.org/forum/style_images/flags/Russian%20Federation.png)
*Format: mp3@CBR320kbps
*Size: 117MB

Tracklist:
1.Spiritual Gates 00:50
2.В Глубинах Бездны 06:08
3.Богопадение 04:40
4.Где был свет 05:28
5.Ad Inferi Aspera 05:02
6.Northern Lights 01:31
7.Мой Бог Мёртв 05:43
8.Хаоса Вестник 06:04
9.Evig Natt 03:20
10.Вечное пламя 04:59
11.Violent Salvage 06:55
******************************
Total playing time: 50:40




Technical info
(IMG:https://metalarea.org/images/spectrogram/2020_Dec/3eb56e30f1bb484077f171f4386cff29.png)
Input File: 03 Богопадение.mp3
Channels : 2
Sample Rate : 44100
Precision : 16-bit
Duration : 00:04:40.10 = 12352542 samples = 21007.7 CDDA sectors
File Size : 11.3M
Bit Rate : 323k
Sample Encoding: MPEG audio (layer I, II or III)
Comments :
Title=Богопадение
Artist=Inhein
Album=Богопадение
Tracknumber=3
Year=2020
Genre=Black Metal



Register


Go to the top of the page
  Insert nick Quick quote
+Quote Post
 
Start new topic
Replies (1 - 1)
post Dec 21 2020, 12:32:38
Post #2

0%Tolerance
**********
Group: Металариец
Posts: 1,171
Releases: 0
On Forums: 8 years 10 months
Thanks: 208 time(s)
Unknown


Злобненько, но простовато исполнено для трёх гЕтарок и барабанной установки в составе группы.
Go to the top of the page
  Insert nick Quick quote
+Quote Post

Reply to this topicStart new topic
1 User(s) are reading this topic (1 Guests and 0 Anonymous Users)
0 Members:

 



- Lo-Fi Version Support form
Copyrights and abuse reports form
Time is now: 1st August 2021 - 11:48:03