Welcome Guest ( Log In | Register )

> И неформату есть предел.

Рэп/хип-хоп/шансон/поп удаляются. Для них есть свои порталы.

> Samsara Blues Experiment - End Of Forever (2020), Stoner/Psychedelic Rock (D6)
post Dec 21 2020, 12:12:57
Post #1

Правь статус, ####!111
**************
Group: Металариец
Posts: 49,207
Releases: 869
On Forums: 12 years 3 months
Thanks: 44658 time(s)
Russian Federation


(IMG:http://metalarea.org/images/audiocovers/2020_Dec/acov_tid345301_thumb.jpg)

*Artist: Samsara Blues Experiment
*Album: End Of Forever
*Year: 2020
*Genre: Stoner/Psychedelic Rock
*Country: Germany (IMG:http://metalarea.org/forum/style_images/flags/Germany.png)
*Format: mp3@CBR320kbps
*Size: 118MB

Tracklist:
1. Second Birth 10:58
2. Massive Passive 06:00
3. Southern Sunset 06:46
4. Lovage Leaves 04:17
5. End Of Forever 07:55
6. Orchid Annie 08:24
7. Jumbo Mumbo Jumbo (Bonus Track) 06:47
******************************
Total playing time: 51:07



Technical info
(IMG:http://metalarea.org/images/spectrogram/2020_Dec/9bc2233abab9a02c9a0cef7970eb966a.png)
Input File: 01 - Second Birth.mp3
Channels : 2
Sample Rate : 44100
Precision : 16-bit
Duration : 00:10:58.93 = 29058637 samples = 49419.5 CDDA sectors
File Size : 26.4M
Bit Rate : 321k
Sample Encoding: MPEG audio (layer I, II or III)
Comments :
Title=Second Birth
Artist=Samsara Blues Experiment
Album=End Of Forever
Tracknumber=01
Year=2020
Genre=Stoner | Psychedelic Rock



Register


Go to the top of the page
  Insert nick Quick quote
+Quote Post
 
Start new topic
Replies (1 - 6)
post Dec 22 2020, 09:41:25
Post #2

hearer & reader
**************
Group: Металариец
Posts: 9,872
Releases: 173
From: Moscow
On Forums: 14 years 2 weeks
Thanks: 11190 time(s)
Russian Federation


Register


Go to the top of the page
  Insert nick Quick quote
+Quote Post
post Dec 22 2020, 12:48:19
Post #3

Правь статус, ####!111
**************
Group: Металариец
Posts: 49,207
Releases: 869
On Forums: 12 years 3 months
Thanks: 44658 time(s)
Russian Federation


Неплохо, но без восторгов.
Go to the top of the page
  Insert nick Quick quote
+Quote Post
post Dec 23 2020, 00:17:42
Post #4

http://rateyourmusic.com/~Ghostb
**************
Group: Металариец
Posts: 2,543
Releases: 0
From: Харьков
On Forums: 11 years 11 months
Thanks: 1249 time(s)
Ukraine


ЦИТАТА(vosmidesijatye @ Dec 22 2020, 13:48:19) *
Неплохо, но без восторгов

Даже удивлен, честно говоря, учитывая, какой ты фанат жанра) А прошлые нравятся?


Thanks:
(1) Andr,
Go to the top of the page
  Insert nick Quick quote
+Quote Post
post Dec 23 2020, 10:45:11
Post #5

Правь статус, ####!111
**************
Group: Металариец
Posts: 49,207
Releases: 869
On Forums: 12 years 3 months
Thanks: 44658 time(s)
Russian Federation


ЦИТАТА(Ghostb @ Dec 23 2020, 03:17:42) *
Даже удивлен, честно говоря, учитывая, какой ты фанат жанра) А прошлые нравятся?


Жанр я, безусловно, очень ценю и люблю, но далеко не все группы в нем в одинаковой степени. Сабжевый коллектив неплох, но лично мне всегда в их творчестве чего-то не хватало, скушноватое оно. То же могу сказать и про тех же Colour Haze, допустим (IMG:style_emoticons/default/bye.gif)


Thanks:
Go to the top of the page
  Insert nick Quick quote
+Quote Post
post Dec 26 2020, 19:33:32
Post #6

А чо я то?!
*****
Group: Металариец
Posts: 461
Releases: 1
On Forums: 14 years 7 months
Thanks: 75 time(s)
Uruguay


Ооооо! Обожаю этих парней! Спасибо!
Go to the top of the page
  Insert nick Quick quote
+Quote Post
post Feb 8 2021, 12:25:17
Post #7

Group: Дух
Posts: 8
Releases: 0
On Forums: 8 months 2 weeks
Thanks: 0 time(s)
Russian Federation


Куда-то пропало обилие ситара. Но по атмосфере мне очень зашло, хотя вроде бы сильно ничего и не выделяется.
Go to the top of the page
  Insert nick Quick quote
+Quote Post

Reply to this topicStart new topic
2 User(s) are reading this topic (2 Guests and 0 Anonymous Users)
0 Members:

 



- Lo-Fi Version Support form
Copyrights and abuse reports form
Time is now: 20th September 2021 - 22:03:52