Welcome Guest ( Log In | Register )

> Chaos Sculptor - Chaos Sculptor (2020), Black/Death Metal
post Dec 24 2020, 10:55:26
Post #1

Время Мары
**************
Group: Металариец
Posts: 3,242
Releases: 473
From: Харьков
On Forums: 12 years 1 month
Thanks: 9717 time(s)
Ukraine


(IMG:http://metalarea.org/images/audiocovers/2020_Dec/acov_tid345392_thumb.jpg)

*Artist: Chaos Sculptor
*Album: Chaos Sculptor
*Year: 2020
*Genre: Black/Death Metal
*Country: United States (IMG:http://metalarea.org/forum/style_images/flags/United%20States.png)
*Format: mp3@CBR320kbps
*Size: 130MB

Tracklist:
1. Fatal Misanthropy
2. The 12th Equilibrium
3. Suffering the Modern Day
4. Dismembering the Predator
5. Five Points to Augment
6. Ruling Through Vampyric Miasma
7. Cast My Soul Away
8. Trial of the Merciless
9. Annihilation Archetype
10. Time is a Flat Circle
******************************
Total playing time: 56:06

Technical info
(IMG:http://metalarea.org/images/spectrogram/2020_Dec/eed9bc123ae48504388352dddc5e0f5b.png)
Input File: 04 - Dismembering the Predator.mp3
Channels : 2
Sample Rate : 44100
Precision : 16-bit
Duration : 00:04:08.49 = 10958541 samples = 18637 CDDA sectors
File Size : 10.2M
Bit Rate : 327k
Sample Encoding: MPEG audio (layer I, II or III)
Comments :
Title=Dismembering the Predator
Artist=Chaos Sculptor
Album=Chaos Sculptor
Tracknumber=4
Year=2020



Register


Go to the top of the page
  Insert nick Quick quote
+Quote Post
 
Start new topic
Replies (1 - 1)
post Dec 25 2020, 04:03:19
Post #2

Маньяк
**********
Group: Металариец
Posts: 1,327
Releases: 470
On Forums: 10 years 8 months
Thanks: 10114 time(s)
Italy




Thanks:
(2) lldma, Morgoth,
Go to the top of the page
  Insert nick Quick quote
+Quote Post

Reply to this topicStart new topic
2 User(s) are reading this topic (2 Guests and 0 Anonymous Users)
0 Members:

 



- Lo-Fi Version Support form
Copyrights and abuse reports form
Time is now: 29th July 2021 - 12:36:28