Welcome Guest ( Log In | Register )

> И неформату есть предел.

Рэп/хип-хоп/шансон/поп удаляются. Для них есть свои порталы.

> Dire Straits - Making Movies (1980), Progressive Rock
post Dec 24 2020, 14:33:55
Post #1

Враг Газпрома
**************
Group: Металариец
Posts: 6,573
Releases: 0
On Forums: 12 years 2 months
Thanks: 2746 time(s)
Russian Federation


(IMG:http://metalarea.org/images/audiocovers/2020_Dec/acov_tid345400_thumb.jpg)

*Artist: Dire Straits
*Album: Making Movies
*Year: 1980
*Genre: Progressive Rock
*Country: United Kingdom (IMG:http://metalarea.org/forum/style_images/flags/United%20Kingdom.png)
*Format: mp3@CBR320kbps
*Size: 83MB

Tracklist:
1 Tunnel of Love 8:06
2 Romeo and Juliet 5:53
3 Skateaway 6:19
4 Expresso Love 5:03
5 Hand in Hand 4:49
6 Solid Rock 3:20
7 Les Boys 4:08
******************************
Total playing time: 37:38

Technical info
(IMG:http://metalarea.org/images/spectrogram/2020_Dec/b28726bd0790e876460f7565e6b536b1.png)
Input File: 01. Tunnel Of Love.mp3
Channels : 2
Sample Rate : 44100
Precision : 16-bit
Duration : 00:08:06.17 = 21440009 samples = 36462.6 CDDA sectors
File Size : 19.5M
Bit Rate : 320k
Sample Encoding: MPEG audio (layer I, II or III)
Comments :
Title=Tunnel Of Love
Artist=Dire Straits
Album=Making Movies
Tracknumber=01
Year=1980
Genre=Rock



Register


Go to the top of the page
  Insert nick Quick quote
+Quote Post
 
Start new topic
Replies (1 - 4)
post Feb 20 2021, 07:29:31
Post #2

Враг Газпрома
**************
Group: Металариец
Posts: 6,573
Releases: 0
On Forums: 12 years 2 months
Thanks: 2746 time(s)
Russian Federation


Как-то не повелось в отношении Dire Straits употреблять термин «прог-рок». Оно и понятно: Нопфлер всегда считался блюзовым гитаристом, да и тембр его голоса больше подходит для исполнения абстрактного «Boom Boom Boom», ну и первые две пластинки (как, впрочем, и последняя в дискографии) говорят в пользу этого мнения. Но вот на Making Movies (хоть и не во всех песнях) Нопфлеру с компанией удалось сложить этакий мостик от блюз-фолк-рока к фолк-прогу. Tunnel Of Love и Romeo And Juliet при внимательном прослушивании дают понять, что все эти приемы, связки, пусть и в адаптированном, переделанном виде, позже были услышаны на джетроталловском Rock Island. К радости старых поклонников, Марк с компанией не стали полностью менять стилистику группы, в итоге через Skateaway и Hand In Hand вышли на «стратегическое направление» предыдущего диска, сыграв яркий ритм-н-блюз Solid Rock и запоминающуюся кабарешную Les Boys. Две первых и два последних трэка альбома можно смело отнести к золотому фонду творчества DS.
П.с. Romeo And Juliet для меня всегда оставалась аллюзией на луридовскую Romeo Loves Juliet, напоминая ее не только названием, но и шармом, тембром голоса.
Go to the top of the page
  Insert nick Quick quote
+Quote Post
post Feb 20 2021, 08:10:21
Post #3

градусы контрастов
**************
Group: Металариец
Posts: 5,130
Releases: 0
On Forums: 5 years 6 months
Thanks: 3326 time(s)
Unknown


недавно начал плотно знакомиться с творчеством этого коллектива.
замечательная музыка, вроде бы и ненапряжная, но очень вдумчивая.
выпить сотку, повтыкать в горизонт или просто, идти куда глаза глядят, ощущая себя свободным от всего происходящего.
круто (IMG:style_emoticons/default/20.gif)


Thanks:
(1) vam1972,
Go to the top of the page
  Insert nick Quick quote
+Quote Post
post Feb 20 2021, 08:49:23
Post #4

Мегаманьяк
***********
Group: Металариец
Posts: 1,553
Releases: 54
On Forums: 10 years 4 months
Thanks: 2004 time(s)
Russian Federation


Sultans of swing доставляет
Go to the top of the page
  Insert nick Quick quote
+Quote Post
post Feb 20 2021, 11:38:38
Post #5

Враг Газпрома
**************
Group: Металариец
Posts: 6,573
Releases: 0
On Forums: 12 years 2 months
Thanks: 2746 time(s)
Russian Federation


ЦИТАТА(Ananiev @ Feb 20 2021, 10:49:23) *
Sultans of swing доставляет

Для меня как раз тот случай, про который упомянул ent404, когда "...просто, идти куда глаза глядят, ощущая себя свободным от всего происходящего."


Thanks:
(1) ent404,
Go to the top of the page
  Insert nick Quick quote
+Quote Post

Reply to this topicStart new topic
1 User(s) are reading this topic (1 Guests and 0 Anonymous Users)
0 Members:

 



- Lo-Fi Version Support form
Copyrights and abuse reports form
Time is now: 1st August 2021 - 11:42:47