Welcome Guest ( Log In | Register )

> Onda Makter - The Misanthropic Blasphemy (2020), Black Metal
post Dec 24 2020, 20:25:14
Post #1

Правь статус, ####!111
**************
Group: Металариец
Posts: 4,800
Releases: 1472
From: Brazil
On Forums: 9 years 4 months
Thanks: 55046 time(s)
Brazil


(IMG:http://metalarea.org/images/audiocovers/2020_Dec/acov_tid345406_thumb.jpg)

*Artist: Onda Makter
*Album: The Misanthropic Blasphemy
*Year: 2020
*Genre: Black Metal
*Country: Sweden (IMG:http://metalarea.org/forum/style_images/flags/Sweden.png)
*Format: mp3@CBR320kbps
*Size: 128MB

Tracklist:
1. Baptised in Styx 06:26
2. Mistress of the Moon 06:43
3. Keepers of the Black Flame 06:12
4. Burn Their Souls 08:14
5. Curse Me Father 09:37
6. Song of the Mourning 03:54
7. Heathen Hatred 08:16
8. Misanthropic Blasphemy 05:59
******************************
Total playing time: 55:21

(IMG:http://metalarea.org/images/youtube.png)

Technical info
(IMG:http://metalarea.org/images/spectrogram/2020_Dec/407c53b912cef3a64572e642a2fa8764.png)
Input File: 02 Mistress of the Moon.mp3
Channels : 2
Sample Rate : 44100
Precision : 16-bit
Duration : 00:06:43.09 = 17776313 samples = 30231.8 CDDA sectors
File Size : 16.4M
Bit Rate : 325k
Sample Encoding: MPEG audio (layer I, II or III)
Comments :
Title=Mistress of the Moon
Artist=Onda Makter
Album=The Misanthropic Blasphemy
Tracknumber=2
Year=2020



Register


Go to the top of the page
  Insert nick Quick quote
+Quote Post
 
Start new topic
Replies (1 - 6)
post Dec 25 2020, 13:15:06
Post #2

Литр
*
Group: Подсевший
Posts: 94
Releases: 0
From: Mayan Kingdom
On Forums: 12 years 7 months
Thanks: 11 time(s)
Guatemala


Very second wave ish. Like it. Thanks.
Go to the top of the page
  Insert nick Quick quote
+Quote Post
post Dec 25 2020, 15:36:00
Post #3

Два Литра
**
Group: Завсегдатай
Posts: 130
Releases: 1
On Forums: 12 years 10 months
Thanks: 114 time(s)
Egypt


Talk about a late contender for some of the best BM released this year, in my opinion. I'm a sucker for precisely this type of BM.

DEFINITELY ordering the CD.


Thanks:
Go to the top of the page
  Insert nick Quick quote
+Quote Post
post Dec 25 2020, 17:38:40
Post #4

Common dweller of hell
**************
Group: Металариец
Posts: 3,829
Releases: 12
From: Dnipro
On Forums: 12 years 11 months
Thanks: 1508 time(s)
Ukraine


Тут вокалист из Fjord
Go to the top of the page
  Insert nick Quick quote
+Quote Post
post Jan 7 2021, 17:18:48
Post #5

I hate you all
**************
Group: Металариец
Posts: 2,599
Releases: 82
From: Ukraine
On Forums: 14 years 1 month
Thanks: 6617 time(s)
Ukraine


Отменный альбом ! Один из лучших за прошлый год !
Go to the top of the page
  Insert nick Quick quote
+Quote Post
post Jan 20 2021, 19:18:20
Post #6
BAN
Banned till
Jul 26 2021, 12:59:08



Register
Go to the top of the page
  Insert nick Quick quote
+Quote Post
post Mar 6 2021, 15:16:11
Post #7

I hate you all
**************
Group: Металариец
Posts: 2,599
Releases: 82
From: Ukraine
On Forums: 14 years 1 month
Thanks: 6617 time(s)
Ukraine


Ух не могу наслушаться , как же драммер тут расписывает по батарее , заслушаться можно , насыщенный и жирнющий звук гитар , с хорошо читаемым скримингом вокалист , с драйвовым саундом , отменные переходы , просто открытие прошлого года , альбом заслуживает на первую десятку лучших релизов прошлого года . Очень впечатлили !!! Есть клип , сделан конечно на коленке , но просто послушайте саунд не пластмассовый звук , мало кого оставит равнодушным , даже пётр ака Tägtgren не смог бы такой звук нарулить . Всем кому надоел просто пердёж и типа аля трЮ , надеюсь оценят . Мало кто остался , кто так заботиться о своём звучании . почти не коментю команды , но тут уже не смог удержаться , эта банда достойна , просто походу у многих прошла не заметно , Отменно !!! ИМХО .



Go to the top of the page
  Insert nick Quick quote
+Quote Post

Reply to this topicStart new topic
2 User(s) are reading this topic (2 Guests and 0 Anonymous Users)
0 Members:

 



- Lo-Fi Version Support form
Copyrights and abuse reports form
Time is now: 23rd June 2021 - 19:28:05