Welcome Guest ( Log In | Register )

 
Reply to this topicStart new topic
> Scrooge - Scrooge (2020), Doom Metal
post Dec 25 2020, 08:23:20
Post #1

Правь статус, ####!111
**************
Group: Металариец
Posts: 26,706
Releases: 19250
From: Г.Харьков
On Forums: 9 years 2 months
Thanks: 385177 time(s)
Unknown


(IMG:http://metalarea.org/images/audiocovers/2020_Dec/acov_tid345412_thumb.jpg)

*Artist: Scrooge
*Album: Scrooge
*Year: 2020
*Genre: Doom Metal
*Country: United Kingdom (IMG:http://metalarea.org/forum/style_images/flags/United%20Kingdom.png)
*Format: mp3@CBR320kbps
*Size: 100MB

Tracklist:
1. Dead to Begin With 08:46
2. Incessant Torture of Remorse 08:03
3. What Would You So Soon Put Out, With Worldly Hands, the Light I Give? 09:33
4. On His Brow I See That Written Which Is Doom 07:14
5. I Thought He'd Never Die 10:16
******************************
Total playing time: 43:52



Extended info
E.S. - Drums & Vocals
Gravy - Guitar
Grave - Bass


Technical info
(IMG:http://metalarea.org/images/spectrogram/2020_Dec/5000182b8b47e4454e2310322520db48.png)
Input File: 04 - On His Brow I See That Written Which Is Doom.mp3
Channels : 2
Sample Rate : 44100
Precision : 16-bit
Duration : 00:07:14.70 = 19170314 samples = 32602.6 CDDA sectors
File Size : 17.4M
Bit Rate : 321k
Sample Encoding: MPEG audio (layer I, II or III)
Comments :
Title=On His Brow I See That Written Which Is Doom
Artist=Scrooge
Album=Scrooge
Tracknumber=4
Year=2020



Register


Go to the top of the page
  Insert nick Quick quote
+Quote Post

Reply to this topicStart new topic
1 User(s) are reading this topic (1 Guests and 0 Anonymous Users)
0 Members:

 



- Lo-Fi Version Support form
Copyrights and abuse reports form
Time is now: 29th July 2021 - 12:32:30