Welcome Guest ( Log In | Register )

> Undergång - The Mother Of Armageddon (2011), Thrash Metal/Crossover (D)
post Dec 27 2020, 01:26:57
Post #1

Подвал
**************
Group: Металариец
Posts: 17,533
Releases: 10020
From: Far East (Khabarovsk)
On Forums: 13 years 6 months
Thanks: 116436 time(s)
Russian Federation


(IMG:http://metalarea.org/images/audiocovers/2020_Dec/acov_tid345467_thumb.jpg)

*Artist: Undergång
*Album: The Mother Of Armageddon
*Year: 2011
*Genre: Thrash Metal/Crossover
*Country: Sweden (IMG:http://metalarea.org/forum/style_images/flags/Sweden.png)
*Format: mp3@CBR192kbps
*Size: 34MB

Tracklist:
1. Pedophiliac Priest / De-Evolution 03:35
2. Gluttony 00:55
3. Critic Eyes 00:57
4. Supposed To Rock 00:23
5. Feeding On Human Misery 00:31
6. The Graveyard 01:04
7. Disconnect 01:01
8. B.T.K. 00:43
9. Jaws 01:02
10. (I Am) Nihilist 01:58
11. Anti Hippie Hardcore 01:32
12. John Wayne Was A Gacy 00:19
13. I Take A Lot Of Pride In What I Am 02:16
14. Tear It Up (Jerry's Kids) 00:57
15. Shackles Of Boredom 00:32
16. U.A.H.C. 00:58
17. Order Of The Armageddon 00:53
18. Keep Jesus Out Of Hardcore 00:48
19. Subject Yourself (To Negativity) 01:10
20. Skate/Die / D.J.M.T.A. 00:52
21. Heard It On The X (ZZ Top cover) 02:15
******************************
Total playing time: 24:41




Extended info
Recorded at OAL Studios, Sollentuna, Stockholm, Sweden.


Technical info
(IMG:http://metalarea.org/images/spectrogram/2020_Dec/3f649e1eb35b04d4d7f5ec080c5f56e8.png)
Input File: 01-Pedophiliac Priest - De-Evolution.mp3
Channels : 2
Sample Rate : 44100
Precision : 16-bit
Duration : 00:03:35.34 = 9496450 samples = 16150.4 CDDA sectors
File Size : 5.17M
Bit Rate : 192k
Sample Encoding: MPEG audio (layer I, II or III)
Comments :
Title=Pedophiliac Priest / De-Evolution
Artist=Undergång (Swe)
Album=The Mother Of Armageddon
Tracknumber=01
Year=2011
Genre=Thrash Metal



Register


Go to the top of the page
  Insert nick Quick quote
+Quote Post
 
Start new topic
Replies (1 - 3)
post Dec 27 2020, 10:38:26
Post #2

Ти ж хотів землі цієї, Тож тепер змішайся з нею Станеш сам моєй землею
**************
Group: Металариец
Posts: 2,695
Releases: 0
From: Україна
On Forums: 13 years 7 months
Thanks: 2369 time(s)
Ukraine


Хорошая команда, выкладывайте по возможности ещё их релизы (IMG:style_emoticons/default/pray.gif) (IMG:style_emoticons/default/pray.gif) (IMG:style_emoticons/default/pray.gif)
Go to the top of the page
  Insert nick Quick quote
+Quote Post
post Dec 27 2020, 18:14:46
Post #3
BAN
Banned till
Apr 1 4760, 02:32:02



Умоляю!!! Другой файлообменник, пожаааааалуууйста, пацыкм, организуйте!
Go to the top of the page
  Insert nick Quick quote
+Quote Post
post Dec 27 2020, 20:20:10
Post #4

Пять Литров
*****
Group: Металариец
Posts: 479
Releases: 0
From: Мурманск
On Forums: 12 years 3 months
Thanks: 643 time(s)
Russian Federation


2010 - .​.​.​And you will live in terror!
Free Download



Go to the top of the page
  Insert nick Quick quote
+Quote Post

Reply to this topicStart new topic
1 User(s) are reading this topic (1 Guests and 0 Anonymous Users)
0 Members:

 



- Lo-Fi Version Support form
Copyrights and abuse reports form
Time is now: 11th August 2022 - 17:55:28