Welcome Guest ( Log In | Register )

 
Reply to this topicStart new topic
> Dysthanasia - Nanohana (2020), Doom/Stoner Metal
post Dec 27 2020, 19:58:38
Post #1

Правь статус, ####!111
**************
Group: Металариец
Posts: 4,570
Releases: 4207
From: Одесса
On Forums: 13 years 7 months
Thanks: 46841 time(s)
Ukraine


(IMG:http://metalarea.org/images/audiocovers/2020_Dec/acov_tid345485_thumb.jpg)

*Artist: Dysthanasia
*Album: Nanohana
*Year: 2020
*Genre: Doom/Stoner Metal
*Country: Australia (IMG:http://metalarea.org/forum/style_images/flags/Australia.png)
*Format: mp3@CBR320kbps
*Size: 125MB

Tracklist:
1. God in the Gaps 08:22
2. I Don't Want You 05:56
3. Father of the Dead 05:34
4. Chloe 10:38
5. Cherry Tree 04:58
6. [Nanohana intro] 04:41
7. Nanohana 11:21
8. Outro 02:05
******************************
Total playing time: 53:35



Technical info
(IMG:http://metalarea.org/images/spectrogram/2020_Dec/55fa9ac20d5e6d80e7b39ce50e175fd0.png)
Input File: 03. Father of the Dead.mp3
Channels : 2
Sample Rate : 44100
Precision : 16-bit
Duration : 00:05:35.04 = 14775352 samples = 25128.1 CDDA sectors
File Size : 13.4M
Bit Rate : 320k
Sample Encoding: MPEG audio (layer I, II or III)
Comments :
Title=Father of the Dead
Artist=Dysthanasia
Album=Nanohana
Tracknumber=3
Year=2019
Genre=Doom/Stoner Metal



Register


Go to the top of the page
  Insert nick Quick quote
+Quote Post

Reply to this topicStart new topic
1 User(s) are reading this topic (1 Guests and 0 Anonymous Users)
0 Members:

 



- Lo-Fi Version Support form
Copyrights and abuse reports form
Time is now: 21st January 2022 - 17:58:05