Welcome Guest ( Log In | Register )

> Primordial Throne - Possessor (2020), Atmospheric Death Metal
post Dec 29 2020, 17:14:24
Post #1

Правь статус, ####!111
**************
Group: Металариец
Posts: 35,117
Releases: 26118
From: Г.Харьков
On Forums: 11 years 9 months
Thanks: 562155 time(s)
Ukraine


(IMG:http://metalarea.org/images/audiocovers/2020_Dec/acov_tid345542_thumb.jpg)

*Artist: Primordial Throne
*Album: Possessor
*Year: 2020
*Genre: Atmospheric Death Metal
*Country: Norway (IMG:http://metalarea.org/forum/style_images/flags/Norway.png)
*Format: mp3@CBR320kbps
*Size: 155MB

Tracklist:
1. Boötes Hypervoid 09:10
2. In the Arms of Nemesis 07:53
3. Calm Fury of the Stars 08:18
4. Possessor 06:48
5. Dirge of a Broken Man 05:16
6. Suns of Gemini 03:25
7. Chaindragger 06:31
8. The Stoic 04:20
9. Akrasia ad Imperium 07:20
10. The Day the World Left You Behind 03:19
11. Demon of the Fall (cover) 06:18
******************************
Total playing time: 1:08:38




Extended info
Ra Everything (2015-present)


Technical info
(IMG:http://metalarea.org/images/spectrogram/2020_Dec/27ed1544bf69cddb84ebd699ba480031.png)
Input File: 07 - Chaindragger.mp3
Channels : 2
Sample Rate : 44100
Precision : 16-bit
Duration : 00:06:32.03 = 17288655 samples = 29402.5 CDDA sectors
File Size : 15.7M
Bit Rate : 320k
Sample Encoding: MPEG audio (layer I, II or III)
Comments :
Title=Chaindragger
Artist=Primordial Throne
Album=Possessor
Tracknumber=7
Year=2020
Genre=Metal



Register


Go to the top of the page
  Insert nick Quick quote
+Quote Post
 
Start new topic
Replies (1 - 4)
post Dec 30 2020, 10:11:30
Post #2

Маньяк
**********
Group: Металариец
Posts: 1,121
Releases: 4
From: Харьков
On Forums: 15 years 6 months
Thanks: 416 time(s)
Ukraine


Кака така Норвегия?
One man symphonic death metal act from British Columbia, Canada


Thanks:
(1) Taakeferd,
Go to the top of the page
  Insert nick Quick quote
+Quote Post
post Dec 30 2020, 10:52:40
Post #3

gazing the void
****
Group: Металариец
Posts: 333
Releases: 6
On Forums: 6 years 10 months
Thanks: 375 time(s)
Zimbabwe


ЦИТАТА(nomadgg1 @ Dec 30 2020, 13:11:30) *
Кака така Норвегия?
One man symphonic death metal act from British Columbia, Canada

Vancouver, British Columbia (early); Moss, Viken, Norway (later)
(С) Metal Archives
Go to the top of the page
  Insert nick Quick quote
+Quote Post
post Dec 30 2020, 12:27:44
Post #4
BAN
Banned till
Mar 17 2024, 02:44:34



Атмосимфодэтх фонтанирование на гетарках и прочих синтезаторах с пиянинами.
Go to the top of the page
  Insert nick Quick quote
+Quote Post
post Jan 4 2021, 11:33:44
Post #5

brutalcesar
**************
Group: Металариец
Posts: 18,774
Releases: 77
From: Рязань
On Forums: 15 years 1 month
Thanks: 11205 time(s)
Russian Federation


Депрессивная синтетика. Не нужно такое
Go to the top of the page
  Insert nick Quick quote
+Quote Post

Reply to this topicStart new topic
2 User(s) are reading this topic (2 Guests and 0 Anonymous Users)
0 Members:

 



- Lo-Fi Version Support form
Copyrights and abuse reports form
Time is now: 3rd March 2024 - 07:32:22