Welcome Guest ( Log In | Register )

> Triumph - Edict Of Iron Ascendancy (2020), Black/Death Metal (D6)
post Dec 30 2020, 11:24:24
Post #1

Правь статус, ####!111
**************
Group: Металариец
Posts: 27,358
Releases: 19846
From: Г.Харьков
On Forums: 9 years 4 months
Thanks: 399543 time(s)
Unknown


(IMG:http://metalarea.org/images/audiocovers/2020_Dec/acov_tid345553_thumb.jpg)

*Artist: Triumph
*Album: Edict Of Iron Ascendancy
*Year: 2020
*Genre: Black/Death Metal
*Country: United States (IMG:http://metalarea.org/forum/style_images/flags/United%20States.png)
*Format: mp3@CBR320kbps
*Size: 61MB

Tracklist:
1. Abolishment Rites 04:26
2. Filth Immolation 03:08
3. Imperious Might 02:24
4. Survial Oath 03:15
5. Iron Ascendancy 02:33
6. Scorn Subjugation 02:24
7. Armored Intransigence 02:45
8. Genocide Command 05:51
******************************
Total playing time: 26:46




Extended info
Immolater All instruments, Vocals
See also: Ancient Malignity, Ritual Genocide, Terroreactor, ex-Blasphemous Creation


Technical info
(IMG:http://metalarea.org/images/spectrogram/2020_Dec/b912c882f6a7f5a0ca864043ea1a8992.png)
Input File: 08. Genocide Command.mp3
Channels : 2
Sample Rate : 44100
Precision : 16-bit
Duration : 00:05:51.60 = 15505736 samples = 26370.3 CDDA sectors
File Size : 14.1M
Bit Rate : 320k
Sample Encoding: MPEG audio (layer I, II or III)
Comments :
Title= Genocide Command
Artist=Triumph
Album=Edict of Iron Ascendancy
Tracknumber=08
Year=2020



Register


Go to the top of the page
  Insert nick Quick quote
+Quote Post
 
Start new topic
Replies (1 - 7)
post Dec 31 2020, 11:16:06
Post #2

Литр
*
Group: Подсевший
Posts: 54
Releases: 0
On Forums: 11 years 2 months
Thanks: 37 time(s)
Unknown


Damn! This is awesome! Revenge/Ritual Genocide style.

Thanks!


Thanks:
(1) Taakeferd,
Go to the top of the page
  Insert nick Quick quote
+Quote Post
post Dec 31 2020, 11:42:34
Post #3

melofags sniper
**************
Group: Металариец
Posts: 6,337
Releases: 0
On Forums: 13 years 6 months
Thanks: 7109 time(s)
Unknown


(IMG:https://f4.bcbits.com/img/0021279396_10.jpg)


Thanks:
(1) biroutios,
Go to the top of the page
  Insert nick Quick quote
+Quote Post
post Dec 31 2020, 13:43:10
Post #4

Дежурный по межполовым вопросам
**************
Group: Металариец
Posts: 3,161
Releases: 2
From: Yaroslavl
On Forums: 5 years 6 days
Thanks: 1995 time(s)
Northern Mariana Islands


QUOTE(babanguida @ Dec 31 2020, 15:42:34) *

Это SSBandera на утреннике ?


Thanks:
Go to the top of the page
  Insert nick Quick quote
+Quote Post
post Dec 31 2020, 13:59:55
Post #5

Full-of-Hate
**************
Group: Металариец
Posts: 4,481
Releases: 0
From: Moscow
On Forums: 12 years 2 months
Thanks: 4740 time(s)
Russian Federation


ЦИТАТА(babanguida @ Dec 31 2020, 13:42:34) *


(IMG:style_emoticons/default/15.gif) (IMG:style_emoticons/default/15.gif) (IMG:style_emoticons/default/15.gif) (IMG:style_emoticons/default/15.gif) (IMG:style_emoticons/default/15.gif) (IMG:style_emoticons/default/15.gif)
В общем, ребенок балуется с гитарами. Ну, пусть балуется, карантин, делать нечего.
Сама музяка дюже тупорылая даже не смотря на отсутствие интеллектуальной подоплеки у всякого козлоблэка и прочих.
Go to the top of the page
  Insert nick Quick quote
+Quote Post
post Dec 31 2020, 14:12:00
Post #6

Full-of-Hate
**************
Group: Металариец
Posts: 4,481
Releases: 0
From: Moscow
On Forums: 12 years 2 months
Thanks: 4740 time(s)
Russian Federation


ЦИТАТА(Anhra Mainyu @ Dec 31 2020, 16:07:25) *

Уверен, что в канун 2031 года послужной список артиста расширится по десятку альбомов под вывеской каждого из многочисленных проектов, а толку останется ноль (IMG:style_emoticons/default/crazy.gif)
Go to the top of the page
  Insert nick Quick quote
+Quote Post
post Dec 31 2020, 14:43:42
Post #7

Девять Литров
*********
Group: Металариец
Posts: 931
Releases: 0
On Forums: 8 years 1 month
Thanks: 714 time(s)
Australia


At least music is not bad here, like for Ritual Genocide.


Thanks:
Go to the top of the page
  Insert nick Quick quote
+Quote Post
post Jan 1 2021, 12:16:05
Post #8

Black Metal War
***********
Group: Металариец
Posts: 1,868
Releases: 0
From: R'lyeh
On Forums: 4 years 9 months
Thanks: 2475 time(s)
Poland


Not bad at all. Of course it's not as great as Revenge and Black Witchery, but sounds very good and similar to these bands.


Thanks:
Go to the top of the page
  Insert nick Quick quote
+Quote Post

Reply to this topicStart new topic
2 User(s) are reading this topic (2 Guests and 0 Anonymous Users)
0 Members:

 



- Lo-Fi Version Support form
Copyrights and abuse reports form
Time is now: 18th September 2021 - 15:33:08