Welcome Guest ( Log In | Register )

> Disparaître - Demo 2 [demo] (2020), Atmospheric Black Metal
post Dec 30 2020, 15:45:32
Post #1

Пять Литров
*****
Group: Металариец
Posts: 431
Releases: 73
From: italy
On Forums: 12 years 11 months
Thanks: 1640 time(s)
Italy


(IMG:https://metalarea.org/images/audiocovers/2020_Dec/acov_tid345563_thumb.jpg)

*Artist: Disparaître
*Album: Demo 2 [demo]
*Year: 2020
*Genre: Atmospheric Black Metal
*Country: France (IMG:https://metalarea.org/forum/style_images/flags/France.png)
*Format: mp3@CBR320kbps
*Size: 46MB

Tracklist:
1. Hiver 07:46
2. Plus la nuit est sombre 06:20
3. Un lit de neige 05:28
******************************
Total playing time: 19:34



Technical info
(IMG:https://metalarea.org/images/spectrogram/2020_Dec/e132416a3f40e1256d5ed310bc2b350e.png)
Input File: Disparaître - Demo 2 (2020) - 01 Hiver.mp3
Channels : 2
Sample Rate : 44100
Precision : 16-bit
Duration : 00:07:46.15 = 20557391 samples = 34961.5 CDDA sectors
File Size : 18.8M
Bit Rate : 322k
Sample Encoding: MPEG audio (layer I, II or III)
Comments :
Title=Hiver
Artist=Disparaître
Album=Demo 2
Tracknumber=1
Year=2020
Genre=Atmospheric Black Metal



Register


Go to the top of the page
  Insert nick Quick quote
+Quote Post
 
Start new topic
Replies (1 - 1)
post Jan 5 2021, 16:16:29
Post #2

Пять Литров
*****
Group: Металариец
Posts: 431
Releases: 73
From: italy
On Forums: 12 years 11 months
Thanks: 1640 time(s)
Italy


Why did it end in low bitrate section?
Go to the top of the page
  Insert nick Quick quote
+Quote Post

Reply to this topicStart new topic
2 User(s) are reading this topic (2 Guests and 0 Anonymous Users)
0 Members:

 



- Lo-Fi Version Support form
Copyrights and abuse reports form
Time is now: 20th June 2021 - 23:25:20