Welcome Guest ( Log In | Register )

> Torfrom - Culto Al Terror (2020), Death Metal
post Jan 2 2021, 10:46:54
Post #1

Правь статус, ####!111
**************
Group: Металариец
Posts: 26,313
Releases: 18938
From: Г.Харьков
On Forums: 9 years 1 month
Thanks: 377504 time(s)
Unknown


(IMG:http://metalarea.org/images/audiocovers/2021_Jan/acov_tid345671_thumb.jpg)

*Artist: Torfrom
*Album: Culto Al Terror
*Year: 2020
*Genre: Death Metal
*Country: Chile (IMG:http://metalarea.org/forum/style_images/flags/Chile.png)
*Format: mp3@CBR320kbps
*Size: 94MB

Tracklist:
1. Confessor 02:50
2. Legión del mal 03:51
3. Psicópata asesino 05:06
4. Luto eterno 03:42
5. Putrefacción 02:58
6. Depravación 03:47
7. Bastardos 04:33
8. Iam Lucifer 03:35
9. Culto al terror 04:20
10. Estrella negra 05:10
******************************
Total playing time: 39:52




Extended info
Enrique Hermosilla Drums
Jorge Arancibia S. Guitars, Vocals (1992-present)
Pedro Ramírez Guitars (1998-present)
Rodrigo Bass (2007-present)
See also: Asbeel


Technical info
(IMG:http://metalarea.org/images/spectrogram/2021_Jan/5a09c3d971d5d980c05ed4f8dfdf8b06.png)
Input File: 07 - Bastardos.mp3
Channels : 2
Sample Rate : 44100
Precision : 16-bit
Duration : 00:04:31.66 = 11980294 samples = 20374.6 CDDA sectors
File Size : 11.2M
Bit Rate : 331k
Sample Encoding: MPEG audio (layer I, II or III)
Comments :
Title=Bastardos
Artist=Torfrom
Album=Culto Al Terror
Tracknumber=7
Year=2020



Register


Go to the top of the page
  Insert nick Quick quote
+Quote Post
 
Start new topic
Replies (1 - 2)
post Jan 2 2021, 20:09:24
Post #2

ME[ta]LLOMAN
**************
Group: Металариец
Posts: 5,007
Releases: 3
From: Avdeyevka
On Forums: 15 years 2 months
Thanks: 2054 time(s)
Honduras


облошк - хорош, вокал - нет.. (IMG:style_emoticons/default/21.gif)


Thanks:
(1) Taakeferd,
Go to the top of the page
  Insert nick Quick quote
+Quote Post
post Jan 3 2021, 11:43:36
Post #3

Совки, гулаги, дефициты
***********
Group: Металариец
Posts: 1,755
Releases: 0
From: Беларусь, Минск
On Forums: 13 years 11 months
Thanks: 887 time(s)
Belarus


Хороший альбом, но первый с 1992 г.
Go to the top of the page
  Insert nick Quick quote
+Quote Post

Reply to this topicStart new topic
2 User(s) are reading this topic (2 Guests and 0 Anonymous Users)
0 Members:

 



- Lo-Fi Version Support form
Copyrights and abuse reports form
Time is now: 18th June 2021 - 13:49:22