Welcome Guest ( Log In | Register )

> И неформату есть предел.

Рэп/хип-хоп/шансон/поп удаляются. Для них есть свои порталы.

> Absolute Key - Puut Kantavat Valoa (2020), Ambient/Drone/Experimental (D5)
post Jan 4 2021, 00:43:57
Post #1

Правь статус, ####!111
**************
Group: Металариец
Posts: 4,800
Releases: 1472
From: Brazil
On Forums: 9 years 4 months
Thanks: 55046 time(s)
Brazil


(IMG:http://metalarea.org/images/audiocovers/2021_Jan/acov_tid345725_thumb.jpg)

*Artist: Absolute Key
*Album: Puut Kantavat Valoa
*Year: 2020
*Genre: Ambient/Drone/Experimental
*Country: Finland (IMG:http://metalarea.org/forum/style_images/flags/Finland.png)
*Format: mp3@VBR272kbps
*Size: 80MB

Tracklist:
1. Minä Näin Puun
2. Lepää Vain Unessa
3. Syyskesän Yöt
4. Ikävyys
5. Hyvä On Hiihtäjän Hiihdellä
6. Uusi Asiallisuuteni.
7. Unohtuneita Polkuja, Jotka Ovat Kasvaneet Umpeen
8. Puut Kantavat Valoa
******************************
Total playing time: 40:51

(IMG:http://metalarea.org/images/youtube.png)
(IMG:http://metalarea.org/images/youtube.png)

Extended info
Tampereen levyt


Artwork By – Katri Siippainen
Mastered By – Jarno Alho
Music By – Antti Klemi


Technical info
(IMG:http://metalarea.org/images/spectrogram/2021_Jan/2b827c908530aafc4f2f0ffc68c49714.png)
Input File: 02 Lepää vain unessa.mp3
Channels : 2
Sample Rate : 44100
Precision : 16-bit
Duration : 00:04:35.83 = 12163927 samples = 20687 CDDA sectors
File Size : 9.48M
Bit Rate : 275k
Sample Encoding: MPEG audio (layer I, II or III)
Comments :
Title=Lepää vain unessa
Artist=Absolute Key
Album=Puut kantavat valoa
Tracknumber=02/8
Year=2020
Genre=Ambient, Drone, Experimental, Electro, Poetry
Discnumber=1/1



Register


Go to the top of the page
  Insert nick Quick quote
+Quote Post
 
Start new topic
Replies (1 - 1)
post Jan 5 2021, 08:56:43
Post #2

градусы контрастов
**************
Group: Металариец
Posts: 5,018
Releases: 0
On Forums: 5 years 4 months
Thanks: 3253 time(s)
Unknown


оу, новье от Антти подвалило
Go to the top of the page
  Insert nick Quick quote
+Quote Post

Reply to this topicStart new topic
2 User(s) are reading this topic (2 Guests and 0 Anonymous Users)
0 Members:

 



- Lo-Fi Version Support form
Copyrights and abuse reports form
Time is now: 23rd June 2021 - 18:26:04