Welcome Guest ( Log In | Register )

> И неформату есть предел.

Рэп/хип-хоп/шансон/поп удаляются. Для них есть свои порталы.

> Raio Negro - Galactic Portals Of The 7 Infernal Suns [ep] (2020), Dark Ambient
post Jan 4 2021, 00:51:41
Post #1

Правь статус, ####!111
**************
Group: Металариец
Posts: 4,800
Releases: 1472
From: Brazil
On Forums: 9 years 4 months
Thanks: 55034 time(s)
Brazil


(IMG:http://metalarea.org/images/audiocovers/2021_Jan/acov_tid345726_thumb.jpg)

*Artist: Raio Negro
*Album: Galactic Portals Of The 7 Infernal Suns [ep]
*Year: 2020
*Genre: Dark Ambient
*Country: Portugal (IMG:http://metalarea.org/forum/style_images/flags/Portugal.png)
*Format: mp3@CBR320kbps
*Size: 46MB

Tracklist:
A1. 1st Portal Of The Blacksun
A2. 2nd Portal Of The Blacksun
A3. 3rd Portal Of The Blacksun
A4. 4th Portal Of The Blacksun
A5. 5th Portal Of The Blacksun
A6. 6th Portal Of The Blacksun
A7. 7th Portal Of The Blacksun
B1. Stellar Sorrow And Blood Raining
B2. The King Of Thule Dancing At The Center Of The Black Sun
******************************
Total playing time: 20:31

Extended info
ASRAR ‎– ASR093


Hyperborean Madness

This is the first concept album by Raio Negro.
9 ambient chants honoring the King.
Stellar Blood and Sorrow.


Technical info
(IMG:http://metalarea.org/images/spectrogram/2021_Jan/635f1fb758be4e4274dad545e8eaaf72.png)
Input File: 01 Side A.mp3
Channels : 2
Sample Rate : 48000
Precision : 16-bit
Duration : 00:13:43.68 = 39536640 samples ~ 61776 CDDA sectors
File Size : 33.3M
Bit Rate : 323k
Sample Encoding: MPEG audio (layer I, II or III)
Comments :
Title=Side A
Artist=Raio Negro
Album=Galactic Portals Of The 7 Infernal Suns
Tracknumber=01
Year=2020
Genre=Dark Ambient



Register


Go to the top of the page
  Insert nick Quick quote
+Quote Post
 
Start new topic
Replies (1 - 1)
post Jan 6 2021, 15:36:20
Post #2

The Angel Of Death
**************
Group: Металариец
Posts: 6,103
Releases: 52
From: Луганск, 13 регион, экс-404
On Forums: 15 years 7 months
Thanks: 2150 time(s)
Papua New Guinea


только это не
ЦИТАТА(lestllk @ 4th January 2021 - 02:51:41) *
*Стиль: Dark Ambient

это Black Ambient
Go to the top of the page
  Insert nick Quick quote
+Quote Post

Reply to this topicStart new topic
2 User(s) are reading this topic (2 Guests and 0 Anonymous Users)
0 Members:

 



- Lo-Fi Version Support form
Copyrights and abuse reports form
Time is now: 20th June 2021 - 22:43:28