Welcome Guest ( Log In | Register )

 
Reply to this topicStart new topic
> Wandelaars - Het Gloren Van De Dooi [ep] (2017), Atmospheric Black Metal
post Jan 4 2021, 00:55:45
Post #1

Правь статус, ####!111
**************
Group: Металариец
Posts: 4,800
Releases: 1472
From: Brazil
On Forums: 9 years 4 months
Thanks: 55046 time(s)
Brazil


(IMG:http://metalarea.org/images/audiocovers/2021_Jan/acov_tid345727_thumb.jpg)

*Artist: Wandelaars
*Album: Het Gloren Van De Dooi [ep]
*Year: 2017
*Genre: Atmospheric Black Metal
*Country: Netherlands (IMG:http://metalarea.org/forum/style_images/flags/Netherlands.png)
*Format: mp3@CBR320kbps
*Size: 94MB

Tracklist:
1. Het gloren van de dooi 06:24
2. Untitled 03:20
3. Untitled 04:17
4. Callisto en Arlas 10:34
******************************
Total playing time: 24:35

(IMG:http://metalarea.org/images/youtube.png)

Extended info
Consistentis Veritatis Peremptoria


Tape-rip + Scans


Technical info
(IMG:http://metalarea.org/images/spectrogram/2021_Jan/1131e566d54371f8fc8f100e64bb4034.png)
Input File: 01-04. Het Gloren Van De Dooi.mp3
Channels : 2
Sample Rate : 48000
Precision : 16-bit
Duration : 00:06:36.80 = 19046160 samples ~ 29759.6 CDDA sectors
File Size : 16.2M
Bit Rate : 327k
Sample Encoding: MPEG audio (layer I, II or III)
Comments :
Title=Het Gloren Van De Dooi
Artist=Wandelaars
Album=Het Gloren Van De Dooi
Tracknumber=01/04
Year=2017
Genre=Black Metal



Register


Go to the top of the page
  Insert nick Quick quote
+Quote Post

Reply to this topicStart new topic
2 User(s) are reading this topic (2 Guests and 0 Anonymous Users)
0 Members:

 



- Lo-Fi Version Support form
Copyrights and abuse reports form
Time is now: 23rd June 2021 - 18:36:05