Welcome Guest ( Log In | Register )

> Effroi & Crypts Of Wallachia - Black Riders From Outer Darkness/Woeful Gleam Upon Snowy Stronghold [split] (2020), Black Metal | Black Metal
post Jan 4 2021, 01:01:52
Post #1

Правь статус, ####!111
**************
Group: Металариец
Posts: 4,800
Releases: 1472
From: Brazil
On Forums: 9 years 4 months
Thanks: 55046 time(s)
Brazil


(IMG:http://metalarea.org/images/audiocovers/2021_Jan/acov_tid345728_thumb.jpg)

*Artist: Effroi & Crypts Of Wallachia
*Album: Black Riders From Outer Darkness/Woeful Gleam Upon Snowy Stronghold [split]
*Year: 2020
*Genre: Black Metal | Black Metal
*Country: Belgium (IMG:http://metalarea.org/forum/style_images/flags/Belgium.png) | Belgium (IMG:http://metalarea.org/forum/style_images/flags/Belgium.png)
*Format: mp3@VBR280kbps
*Size: 24MB

Tracklist:
Effroi:
1. Black Riders from Outer Darkness 06:05
Crypts of Wallachia:
2. Woeful Gleam upon Snowy Stronghold 05:38
******************************
Total playing time: 11:43

(IMG:http://metalarea.org/images/youtube.png)

Extended info
Medieval Prophecy Records

Vinyl-rip by Zero


Technical info
(IMG:http://metalarea.org/images/spectrogram/2021_Jan/f93007586882320a98cf54d706db6c54.png)
Input File: 01 Black Riders From Outer Darkness.mp3
Channels : 2
Sample Rate : 44100
Precision : 16-bit
Duration : 00:06:05.22 = 16106070 samples = 27391.3 CDDA sectors
File Size : 12.7M
Bit Rate : 278k
Sample Encoding: MPEG audio (layer I, II or III)
Comments :
Title=Black Riders From Outer Darkness
Artist=Effroi
Album=Black Riders From Outer Darkness/ Woeful Gleam Upon Snowy Stronghold
Tracknumber=01/2
Year=2020
Genre=Black Metal
Discnumber=1/1



Register


Go to the top of the page
  Insert nick Quick quote
+Quote Post
 
Start new topic
Replies (1 - 3)
post Jan 6 2021, 14:20:45
Post #2

Два Литра
**
Group: Завсегдатай
Posts: 182
Releases: 0
On Forums: 11 years 6 months
Thanks: 51 time(s)
Russian Federation


Effroi понравился
Go to the top of the page
  Insert nick Quick quote
+Quote Post
post Jan 6 2021, 18:57:17
Post #3

Group: Подсевший
Posts: 32
Releases: 0
On Forums: 5 months 3 weeks
Thanks: 23 time(s)
Unknown


Глубокий бельгийский андеграунд (IMG:style_emoticons/default/true_black.gif) . Оба проекта примечательны. Crypts Of Wallachia мне интересен чуть больше чем Effroi, который к слову очень хорош. Помню хотел найти эту семерку (я реально маньяк по части коллекционирования семи дюймовых винилов), но потом как то позабыл. Спасибо lestllk что напомнил. Надеюсь эта пластинка не превратилась в "артефакт" и не стала стоить как бюджетный "вертак" на котором ее надобно проигрывать (IMG:style_emoticons/default/fear.gif)
Go to the top of the page
  Insert nick Quick quote
+Quote Post
post Jan 26 2021, 17:26:21
Post #4

While Waiting the Worms
**********
Group: Металариец
Posts: 1,319
Releases: 0
On Forums: 7 years 6 months
Thanks: 1983 time(s)
Unknown


Прекрасно!
Правильная сырость и необузданная ярость подачи от Effroi подачи идут рука об руку с размашистой неторопливостью и величественной атмосферой Crypts of Wallachia.
Честно, естественно, безыскусно.
Ровно то, чего я ожидал от этих проектов и этого лэйбла.
Go to the top of the page
  Insert nick Quick quote
+Quote Post

Reply to this topicStart new topic
2 User(s) are reading this topic (2 Guests and 0 Anonymous Users)
0 Members:

 



- Lo-Fi Version Support form
Copyrights and abuse reports form
Time is now: 23rd June 2021 - 18:39:22