Welcome Guest ( Log In | Register )

> Askeregn & Kêres - Askeregn/Kêres [split] (2019), Black Metal | Black Metal (D)
post Jan 4 2021, 01:08:07
Post #1

Правь статус, ####!111
**************
Group: Металариец
Posts: 4,800
Releases: 1472
From: Brazil
On Forums: 9 years 4 months
Thanks: 55046 time(s)
Brazil


(IMG:http://metalarea.org/images/audiocovers/2021_Jan/acov_tid345729_thumb.jpg)

*Artist: Askeregn & Kêres
*Album: Askeregn/Kêres [split]
*Year: 2019
*Genre: Black Metal | Black Metal
*Country: Norway (IMG:http://metalarea.org/forum/style_images/flags/Norway.png) | Finland (IMG:http://metalarea.org/forum/style_images/flags/Finland.png)
*Format: mp3@VBR270kbps
*Size: 28MB

Tracklist:
Askeregn:
1. Fra avgrunnens rumlende dyp 06:27
Kêres:
2. Forging the Forbidden Stone 07:17
******************************
Total playing time: 13:44

Extended info
Terratur Possessions

Vinyl-rip by Zero


Technical info
(IMG:http://metalarea.org/images/spectrogram/2021_Jan/bce992c20166a3e79093ebf8994e853e.png)
Input File: 01 Fra Avgrunnens Rumlende Dyp.mp3
Channels : 2
Sample Rate : 44100
Precision : 16-bit
Duration : 00:06:27.79 = 17101407 samples = 29084 CDDA sectors
File Size : 13.3M
Bit Rate : 275k
Sample Encoding: MPEG audio (layer I, II or III)
Comments :
Title=Fra Avgrunnens Rumlende Dyp
Artist=Askeregn
Album=Askeregn / Kêres
Tracknumber=01/2
Year=2019
Genre=Black Metal
Discnumber=1/1



Register


Go to the top of the page
  Insert nick Quick quote
+Quote Post
 
Start new topic
Replies (1 - 1)
post Feb 17 2021, 18:04:53
Post #2

Group: Подсевший
Posts: 26
Releases: 0
On Forums: 2 years 6 days
Thanks: 12 time(s)
Honduras


Ааагонь! (IMG:style_emoticons/default/true_black.gif) (IMG:style_emoticons/default/true_black.gif) (IMG:style_emoticons/default/true_black.gif)
Go to the top of the page
  Insert nick Quick quote
+Quote Post

Reply to this topicStart new topic
2 User(s) are reading this topic (2 Guests and 0 Anonymous Users)
0 Members:

 



- Lo-Fi Version Support form
Copyrights and abuse reports form
Time is now: 23rd June 2021 - 18:43:10