Welcome Guest ( Log In | Register )

> Elderwind - The Relict [single] (2020), Atmospheric Black Metal (D)
post Jan 7 2021, 11:11:12
Post #1

Мегаманьяк
***********
Group: Металариец
Posts: 1,536
Releases: 125
On Forums: 9 years 1 month
Thanks: 3878 time(s)
Unknown


(IMG:https://metalarea.org/images/audiocovers/2021_Jan/acov_tid345837_thumb.jpg)

*Artist: Elderwind
*Album: The Relict [single]
*Year: 2020
*Genre: Atmospheric Black Metal
*Country: Russian Federation (IMG:https://metalarea.org/forum/style_images/flags/Russian%20Federation.png)
*Format: mp3@CBR320kbps
*Size: 17MB

Tracklist:
01. The Relict / Реликт 07:21
******************************
Total playing time: 7:21

Extended info


Technical info
(IMG:https://metalarea.org/images/spectrogram/2021_Jan/ac9f8431d11ef1ec5b95992474015d65.png)
Input File: 01. Реликт.mp3
Channels : 2
Sample Rate : 44100
Precision : 16-bit
Duration : 00:07:21.83 = 19484835 samples = 33137.5 CDDA sectors
File Size : 17.7M
Bit Rate : 320k
Sample Encoding: MPEG audio (layer I, II or III)
Comments :
Title=Реликт
Artist=Elderwind
Album=Реликт (Single)
Tracknumber=1
Year=2020
Genre=Atmospheric Black Metal



Register


Go to the top of the page
  Insert nick Quick quote
+Quote Post
 
Start new topic
Replies (1 - 7)
post Jan 8 2021, 08:34:14
Post #2

Мегаманьяк
***********
Group: Металариец
Posts: 1,562
Releases: 11
From: Комсомольск-на-Амуре
On Forums: 13 years 2 months
Thanks: 493 time(s)
Russian Federation


Ну-с, послушаем-с. Насколько зашёл первый, настолько не зашёл второй. Долго пытался расслушать, но всё осталось как было.


Thanks:
Go to the top of the page
  Insert nick Quick quote
+Quote Post
post Jan 8 2021, 12:54:13
Post #3

Четыре Литра
****
Group: Металариец
Posts: 387
Releases: 5
On Forums: 15 years 8 months
Thanks: 311 time(s)
Russian Federation


Сингл очень напоминает Ноктурнал Мортум. Идеально вписался бы в Голос Стали
Go to the top of the page
  Insert nick Quick quote
+Quote Post
post Jan 8 2021, 12:55:26
Post #4

Ледоруб
**************
Group: Металариец
Posts: 31,701
Releases: 0
From: Санкт-Петербург
On Forums: 13 years 2 months
Thanks: 11249 time(s)
Russian Federation


Очень своевременно.
Go to the top of the page
  Insert nick Quick quote
+Quote Post
post Jan 8 2021, 14:07:55
Post #5
BAN
RO till
Dec 7 2022, 19:26:25



ЦИТАТА(goxther @ Jan 8 2021, 13:54:13) *
Сингл очень напоминает Ноктурнал Мортум. Идеально вписался бы в Голос Стали


Таких "идеально вписавшихся" можно насобирать вагон и маленькую тележку. До Ноктурнал Мортум им как до неба.
Стафф: банальный мелодичный атмоблэк, претендующий на звание хЫта. На этот сингл по ходу и делается ставка. В полноформате будет сплошной порожняк.


Thanks:
Go to the top of the page
  Insert nick Quick quote
+Quote Post
post Jan 9 2021, 18:28:51
Post #6

Group: Подсевший
Posts: 32
Releases: 0
On Forums: 1 year 11 months
Thanks: 23 time(s)
Unknown


Частенько натыкаюсь на восторженные отклики о Elderwind. По своему опыту касательно музыки уральцев скажу так: первый альбом был очень хорош и даже больше. Затем был очень ламповый сплит с шведским романтиком Lustre. И вторым полноформатным альбомом я откровенно говоря так и не проникся, он показался мне слабой калькой на дебютник. Хотя может быть я дам ему второй шанс. Сингловый The Relict это 100% Elderwind. Все что эта банда музыкально из себя представляет уместилось на чуть больше чем 7 минут звучания. Сам по себе трек яркий, красивый и природно-сказочный. Хотя в Атмо Блэке так чуть ли не через одного исполнителя бывает. Будущий альбом послушать будет интересно, но есть опасение что он будет затянут и "пуст" во всей своей атмосферной красоте. Подождем...
Go to the top of the page
  Insert nick Quick quote
+Quote Post
post Jan 11 2021, 09:43:46
Post #7

Маньяк
**********
Group: Металариец
Posts: 1,038
Releases: 0
From: Харьков
On Forums: 14 years 8 months
Thanks: 886 time(s)
Ukraine


На днях после выхода сингла переслушивал дискографию. Тащемта очень годный душевный атмоблэк, самую малость еще недовылизан до совершенства, но это вопрос времени. Что не мешает сабжу доставлять.


Thanks:
(1) Persy,
Go to the top of the page
  Insert nick Quick quote
+Quote Post
post Jan 28 2021, 19:28:24
Post #8

Ёлд ХеллоВяйне
Group Icon
Group: V.I.P
Posts: 33,816
Releases: 144
From: Питер
On Forums: 16 years 1 month
Thanks: 21252 time(s)
Russian Federation


QUOTE(Vitald @ 8th January 2021 - 16:07:55) *
До Ноктурнал Мортум им как до неба.


Да.

QUOTE(goxther @ 8th January 2021 - 14:54:13) *
Идеально вписался бы в Голос Стали


Вообще нет.
Go to the top of the page
  Insert nick Quick quote
+Quote Post

Reply to this topicStart new topic
2 User(s) are reading this topic (2 Guests and 0 Anonymous Users)
0 Members:

 



- Lo-Fi Version Support form
Copyrights and abuse reports form
Time is now: 2nd December 2022 - 23:51:03