Welcome Guest ( Log In | Register )

> Konquest - The Night Goes On (2021), Heavy Metal
post Jan 7 2021, 23:25:22
Post #1

Правь статус, ####!111
**************
Group: Металариец
Posts: 26,758
Releases: 19318
From: Г.Харьков
On Forums: 9 years 2 months
Thanks: 386693 time(s)
Unknown


(IMG:http://metalarea.org/images/audiocovers/2021_Jan/acov_tid345860_thumb.jpg)

*Artist: Konquest
*Album: The Night Goes On
*Year: 2021
*Genre: Heavy Metal
*Country: Italy (IMG:http://metalarea.org/forum/style_images/flags/Italy.png)
*Format: mp3@CBR320kbps
*Size: 81MB

Tracklist:
1. Theme Of The Konqueror 02:05
2. The Night Goes On 04:26
3. Too Late 04:20
4. Keep Me Alive 04:01
5. Fall Of The Konqueror 03:54
6. Helding Back The Tears 04:36
7. Heavy Heart 04:34
8. The Vision 07:19
******************************
Total playing time: 35:15



Extended info
Alex Rossi Everything
See also: Dragnet, Fate, ex-The Rottens, Carlos Dunga, Destinazione Finale, Iena, xDELOREANx, ex-Eleim


Technical info
(IMG:http://metalarea.org/images/spectrogram/2021_Jan/bf0ab6206b26fec0f032cf83c2ae750e.png)
Input File: 07 - Heavy Heart.mp3
Channels : 2
Sample Rate : 44100
Precision : 16-bit
Duration : 00:04:34.38 = 12100246 samples = 20578.6 CDDA sectors
File Size : 11.1M
Bit Rate : 324k
Sample Encoding: MPEG audio (layer I, II or III)
Comments :
Title=Heavy Heart
Artist=Konquest
Album=The Night Goes On
Tracknumber=7
Year=2021
Genre=Hard Rock



Register


Go to the top of the page
  Insert nick Quick quote
+Quote Post
 
Start new topic
Replies (1 - 8)
post Jan 8 2021, 12:19:14
Post #2

Два Литра
**
Group: Завсегдатай
Posts: 112
Releases: 0
On Forums: 1 year 9 months
Thanks: 10 time(s)
Unknown


вокал супир. и песни есть цыпляющие. вот где талант а не у вашых лайхов и дарк транквилидей паганых
Go to the top of the page
  Insert nick Quick quote
+Quote Post
post Jan 8 2021, 13:40:39
Post #3

Четыре Литра
****
Group: Металариец
Posts: 364
Releases: 5
On Forums: 14 years 4 months
Thanks: 299 time(s)
Russian Federation


Вокал слабый, как будто Росси сейчас задохнется, музыка вторична. Я хз, чем там восхищаться


Thanks:
Go to the top of the page
  Insert nick Quick quote
+Quote Post
post Jan 8 2021, 16:42:12
Post #4

MDM-Thrash Metal
**************
Group: Металариец
Posts: 10,496
Releases: 1268
From: Одесса
On Forums: 13 years 11 months
Thanks: 30854 time(s)
Ukraine


ЦИТАТА(nikitakapernaumov @ Jan 8 2021, 15:19:14) *
вокал супир. и песни есть цыпляющие. вот где талант а не у вашых лайхов и дарк транквилидей паганых

Вот это поворот....Как таким посредственным можно восхищаться???????
Go to the top of the page
  Insert nick Quick quote
+Quote Post
post Jan 8 2021, 19:03:27
Post #5

Два Литра
**
Group: Завсегдатай
Posts: 112
Releases: 0
On Forums: 1 year 9 months
Thanks: 10 time(s)
Unknown


трольте ковонить другова. а у сабжа вон уже две прадажы за вечер на бэндкампе
Go to the top of the page
  Insert nick Quick quote
+Quote Post
post Jan 8 2021, 20:49:51
Post #6

Время Мары
**************
Group: Металариец
Posts: 3,242
Releases: 473
From: Харьков
On Forums: 12 years 1 month
Thanks: 9721 time(s)
Ukraine


ЦИТАТА(nikitakapernaumov @ Jan 8 2021, 20:03:27) *
трольте ковонить другова. а у сабжа вон уже две прадажы за вечер на бэндкампе

Ты что с детского сада? (IMG:style_emoticons/default/13.gif)


Thanks:
Go to the top of the page
  Insert nick Quick quote
+Quote Post
post Jan 9 2021, 21:17:49
Post #7

Маньяк
**********
Group: Металариец
Posts: 1,413
Releases: 5
From: Нью-Васюки
On Forums: 15 years 2 months
Thanks: 422 time(s)
Russian Federation


ЦИТАТА(vasilisk @ Jan 8 2021, 21:49:51) *
Ты что с детского сада? (IMG:style_emoticons/default/13.gif)

Такие в других учреждениях сидят, с решеткам на окнах и галоперидолом вместо еды.Только даун будет таким отстоем восхищаться.Сбежал видимо из лечебницы клиент и к нам занесло.


Go to the top of the page
  Insert nick Quick quote
+Quote Post
post Jan 10 2021, 20:57:10
Post #8

Два Литра
**
Group: Завсегдатай
Posts: 112
Releases: 0
On Forums: 1 year 9 months
Thanks: 10 time(s)
Unknown


ЦИТАТА(Darkness @ Jan 9 2021, 21:17:49) *
Такие в других учреждениях сидят, с решеткам на окнах и галоперидолом вместо еды.Только даун будет таким отстоем восхищаться.Сбежал видимо из лечебницы клиент и к нам занесло.

чо, на двачике вам ниотвечаю тут миня решыл выцыпить (IMG:style_emoticons/default/15.gif)
Go to the top of the page
  Insert nick Quick quote
+Quote Post
post Mar 8 2021, 16:06:02
Post #9

i listen to black metal
**************
Group: Металариец
Posts: 2,981
Releases: 138
From: Москва
On Forums: 14 years 7 months
Thanks: 2322 time(s)
Russian Federation


группа из 70-х,но их зря разбудили
+ Никита из школы всю тему портит и смешит))))
Go to the top of the page
  Insert nick Quick quote
+Quote Post

Reply to this topicStart new topic
2 User(s) are reading this topic (2 Guests and 0 Anonymous Users)
0 Members:

 



- Lo-Fi Version Support form
Copyrights and abuse reports form
Time is now: 4th August 2021 - 14:35:33