Welcome Guest ( Log In | Register )

> И неформату есть предел.

Рэп/хип-хоп/шансон/поп удаляются. Для них есть свои порталы.

> Morgue's Last Choice - 7511 (2012), Experimental/Industrial/Noise
post Jan 8 2021, 20:06:03
Post #1

Шесть Литров
******
Group: Металариец
Posts: 581
Releases: 27
From: Санкт-Петербург
On Forums: 14 years 9 months
Thanks: 1863 time(s)
Russian Federation


(IMG:http://metalarea.org/images/audiocovers/2021_Jan/acov_tid345893_thumb.jpg)

*Artist: Morgue's Last Choice
*Album: 7511
*Year: 2012
*Genre: Experimental/Industrial/Noise
*Country: Estonia (IMG:http://metalarea.org/forum/style_images/flags/Estonia.png)
*Format: mp3@CBR320kbps
*Size: 127MB

Tracklist:
01. Rümbatükeldaja 07:34
02. Veretustaja 02:26
03. Nülgija 08:45
04. Loomade Kokkuajaja (Tapaks) 03:36
05. Konditustaja 08:54
06. Lahtija 05:04
07. Lihuniku Memorandum 04:50
08. Lemmikloomade Krematoorium 06:05
09. 7511 06:16
******************************
Total playing time: 53:28

Extended info
Brand new Dark Ambient/Noise/Industrial album by cult veterans Morgue's Last Choice. Definitely a treat for all people who like to immerse themselves in some deep horror atmospheres...

Lunastaja - vocals, keyboards
Cly/Suva - production, electronics


Technical info
(IMG:http://metalarea.org/images/spectrogram/2021_Jan/80d60056ae8049c5341bac9f538bb3ed.png)
Input File: 01 - Rümbatükeldaja.mp3
Channels : 2
Sample Rate : 44100
Precision : 16-bit
Duration : 00:07:34.09 = 20025281 samples = 34056.6 CDDA sectors
File Size : 18.3M
Bit Rate : 323k
Sample Encoding: MPEG audio (layer I, II or III)
Comments :
Title=Rümbatükeldaja
Artist=Morgue's Last Choice
Album=7511
Tracknumber=01
Year=2012
Genre=Experimental/Industrial/Noise



Register


Go to the top of the page
  Insert nick Quick quote
+Quote Post
 
Start new topic
Replies (1 - 1)
post Jan 10 2021, 19:39:32
Post #2

Пять Литров
*****
Group: Металариец
Posts: 453
Releases: 0
From: Мурманск
On Forums: 10 years 10 months
Thanks: 597 time(s)
Russian Federation


Go to the top of the page
  Insert nick Quick quote
+Quote Post

Reply to this topicStart new topic
1 User(s) are reading this topic (1 Guests and 0 Anonymous Users)
0 Members:

 



- Lo-Fi Version Support form
Copyrights and abuse reports form
Time is now: 8th March 2021 - 03:32:16