Welcome Guest ( Log In | Register )

> Crown Of Fallen Heroes - From Ruins Of The Ancient Dark Ages (2020), Pagan Black Metal
post Jan 9 2021, 01:27:39
Post #1

Правь статус, ####!616
**************
Group: Металариец
Posts: 6,644
Releases: 5111
From: 55°35’N 38°08’E
On Forums: 13 years 3 weeks
Thanks: 94060 time(s)
Unknown


(IMG:https://metalarea.org/images/audiocovers/2021_Jan/acov_tid345909_thumb.jpg)

*Artist: Crown Of Fallen Heroes
*Album: From Ruins Of The Ancient Dark Ages
*Year: 2020
*Genre: Pagan Black Metal
*Country: Brazil (IMG:https://metalarea.org/forum/style_images/flags/Brazil.png)
*Format: mp3@CBR320kbps
*Size: 106MB

Tracklist:
1.Prelude: The golden mists of dawn 02:20
2.From ruins of the ancient dark ages 10:24
3.Wrath from ancestral lands 07:24
4.Abreast with honour and triumph 07:18
5.Wandering through foggy landscapes 02:37
6.Forest of pagan memories 12:20
7.Epilogue: Where crimson skies meet the darkness 03:26
******************************
Total playing time: 45:49


(IMG:https://metalarea.org/images/youtube.png)


Technical info
(IMG:https://metalarea.org/images/spectrogram/2021_Jan/fa95c6cc2b7f6d1554c0ea3cb9ff27b2.png)
Input File: 02 From ruins of the ancient dark ages.mp3
Channels : 2
Sample Rate : 44100
Precision : 16-bit
Duration : 00:10:24.18 = 27526382 samples = 46813.6 CDDA sectors
File Size : 25.1M
Bit Rate : 321k
Sample Encoding: MPEG audio (layer I, II or III)
Comments :
Title=From ruins of the ancient dark ages
Artist=Crown of Fallen Heroes
Album=From ruins of the ancient dark ages
Tracknumber=2
Year=2020
Genre=Pagan Metal
Discnumber=1/1



Register


Go to the top of the page
  Insert nick Quick quote
+Quote Post
 
Start new topic
Replies (1 - 3)
post Jan 11 2021, 22:14:09
Post #2

Шесть Литров
******
Group: Металариец
Posts: 501
Releases: 0
From: Москва
On Forums: 14 years 9 months
Thanks: 111 time(s)
Russian Federation


Неплохой среднетемповый эпик, отлично слушается фоном.


Thanks:
(1) vdolghi,
Go to the top of the page
  Insert nick Quick quote
+Quote Post
post Jan 25 2021, 13:37:51
Post #3

добрый мизантроп
**************
Group: Металариец
Posts: 2,286
Releases: 1
From: Минск
On Forums: 10 years 8 months
Thanks: 1059 time(s)
Madagascar


По музыке не придерешься, хороший альбом
Go to the top of the page
  Insert nick Quick quote
+Quote Post
post Apr 6 2021, 21:14:36
Post #4

i listen to black metal
**************
Group: Металариец
Posts: 2,976
Releases: 138
From: Москва
On Forums: 14 years 7 months
Thanks: 2322 time(s)
Russian Federation


хотели стать вторым Грейвуорм - не получилось((((
Go to the top of the page
  Insert nick Quick quote
+Quote Post

Reply to this topicStart new topic
2 User(s) are reading this topic (2 Guests and 0 Anonymous Users)
0 Members:

 



- Lo-Fi Version Support form
Copyrights and abuse reports form
Time is now: 1st August 2021 - 12:22:29