Welcome Guest ( Log In | Register )

> Mysteria Mystica Aeterna - Into The Kingdom Of Shadows (2021), Black Metal
post Jan 10 2021, 23:59:24
Post #1

Правь статус, ####!111
**************
Group: Металариец
Posts: 4,800
Releases: 1472
From: Brazil
On Forums: 9 years 4 months
Thanks: 55046 time(s)
Brazil


(IMG:http://metalarea.org/images/audiocovers/2021_Jan/acov_tid345967_thumb.jpg)

*Artist: Mysteria Mystica Aeterna
*Album: Into The Kingdom Of Shadows
*Year: 2021
*Genre: Black Metal
*Country: Germany (IMG:http://metalarea.org/forum/style_images/flags/Germany.png)
*Format: mp3@CBR320kbps
*Size: 85MB

Tracklist:
1. Preludium
2. Kiss of the Goat
3. Order of the Black Light
4. Intermezzo
5. The Gates of Hell
6. Into the Kingdom of Shadows
******************************
Total playing time: 36:46



Extended info
Narbentage Produktionen

Lineup

Frater Noxathra - All instruments, Vocals (2020-present)
See also: Belzazel, Lunar Chalice, Malefica, Nightwalker, Sacrilegious Rite, Todesweihe, ex-Adversum


Technical info
(IMG:http://metalarea.org/images/spectrogram/2021_Jan/f258772d27645b0e7a80825229903acf.png)
Input File: 02 Kiss of the Goat.mp3
Channels : 2
Sample Rate : 44100
Precision : 16-bit
Duration : 00:07:06.08 = 18790128 samples = 31956 CDDA sectors
File Size : 17.1M
Bit Rate : 322k
Sample Encoding: MPEG audio (layer I, II or III)
Comments :
Title=Kiss of the Goat
Artist=Mysteria Mystica Aeterna
Album=Into the Kingdom of Shadows
Tracknumber=2
Year=2020



Register


Go to the top of the page
  Insert nick Quick quote
+Quote Post
 
Start new topic
Replies (1 - 9)
post Jan 11 2021, 17:38:28
Post #2

Common dweller of hell
**************
Group: Металариец
Posts: 3,829
Releases: 12
From: Dnipro
On Forums: 12 years 11 months
Thanks: 1508 time(s)
Ukraine


Не плохая чернуха, клавишные прикольные.
Go to the top of the page
  Insert nick Quick quote
+Quote Post
post Jan 12 2021, 10:26:04
Post #3

кручу наждак
**************
Group: Металариец
Posts: 5,003
Releases: 104
From: Самара
On Forums: 11 years 1 month
Thanks: 4049 time(s)
Russian Federation


Привет из дремучих 90-х, такого в то время было пруд пруди. За ностальгию зачет, но в музыкальном плане уже практически не торкает.
Go to the top of the page
  Insert nick Quick quote
+Quote Post
post Jan 12 2021, 12:02:42
Post #4

0%Tolerance
**********
Group: Металариец
Posts: 1,046
Releases: 0
On Forums: 8 years 9 months
Thanks: 188 time(s)
Unknown


Затянуто, блть. Нигилистическая ритуальная блэкуха. На раз можно.
Go to the top of the page
  Insert nick Quick quote
+Quote Post
post Jan 12 2021, 19:42:39
Post #5

While Waiting the Worms
**********
Group: Металариец
Posts: 1,319
Releases: 0
On Forums: 7 years 6 months
Thanks: 1983 time(s)
Unknown


Отличная старорежимная демка германской школы, прямо-таки Moonblood с клавишами.
Lunar Chalice его, кстати, тоже очень хорош.
Go to the top of the page
  Insert nick Quick quote
+Quote Post
post Jan 13 2021, 11:26:12
Post #6

Пять Литров
*****
Group: Металариец
Posts: 427
Releases: 0
From: Vilnius
On Forums: 14 years 4 months
Thanks: 144 time(s)
Lithuania


Понравилось, причем раза с третьего ваапще замечательно зашло. Именно "привет из 90-х" и звук и мелодическая составляющая. А как альбом 36 минутны может быть затянутым ?-все, по моему, в меру


Thanks:
(1) isvili,
Go to the top of the page
  Insert nick Quick quote
+Quote Post
post Jan 13 2021, 13:30:14
Post #7

0%Tolerance
**********
Group: Металариец
Posts: 1,046
Releases: 0
On Forums: 8 years 9 months
Thanks: 188 time(s)
Unknown


ЦИТАТА(sabr @ Jan 13 2021, 12:26:12) *
А как альбом 36 минутны может быть затянутым ?-все, по моему, в меру


Треки длительностью по 9 и 8 минут какбэ не влияют на общий хронометраж альбома. Укоротить их вдвое - КПД усилится за счёт отсечения тупого однообразного жевания.
Go to the top of the page
  Insert nick Quick quote
+Quote Post
post Jan 15 2021, 09:49:35
Post #8

Common dweller of hell
**************
Group: Металариец
Posts: 3,829
Releases: 12
From: Dnipro
On Forums: 12 years 11 months
Thanks: 1508 time(s)
Ukraine


Uploader you are have а LOSSLESS format?
Go to the top of the page
  Insert nick Quick quote
+Quote Post
post Jan 29 2021, 12:06:49
Post #9

добрый мизантроп
**************
Group: Металариец
Posts: 2,251
Releases: 1
From: Минск
On Forums: 10 years 7 months
Thanks: 1044 time(s)
Madagascar


Атмосферный неторопливый блэк, буду тестить еще. Чет напоминает славянский БМ, но немного спокойнее, медленнее и бурзумнее
Go to the top of the page
  Insert nick Quick quote
+Quote Post
post Feb 22 2021, 20:17:32
Post #10

А чо я то?!
*****
Group: Металариец
Posts: 457
Releases: 1
On Forums: 14 years 4 months
Thanks: 75 time(s)
Uruguay


Грэйвлэндово.
Go to the top of the page
  Insert nick Quick quote
+Quote Post

Reply to this topicStart new topic
2 User(s) are reading this topic (2 Guests and 0 Anonymous Users)
0 Members:

 



- Lo-Fi Version Support form
Copyrights and abuse reports form
Time is now: 23rd June 2021 - 19:19:03