Welcome Guest ( Log In | Register )

> Atrium Malum - Spirale Démentielle [demo] (2019), Dark Ambient/Black Ambient
post Jan 11 2021, 03:45:52
Post #1

Правь статус, ####!111
**************
Group: Металариец
Posts: 4,800
Releases: 1472
From: Brazil
On Forums: 9 years 4 months
Thanks: 55046 time(s)
Brazil


(IMG:http://metalarea.org/images/audiocovers/2021_Jan/acov_tid345970_thumb.jpg)

*Artist: Atrium Malum
*Album: Spirale Démentielle [demo]
*Year: 2019
*Genre: Dark Ambient/Black Ambient
*Country: France (IMG:http://metalarea.org/forum/style_images/flags/France.png)
*Format: mp3@VBR245kbps
*Size: 67MB

Tracklist:
A1. Sombre Lueur
A2. Décrépitude
A3. Svaëertzvrëh • Chant de Folte •
B1. Le Murmure de la Vanité
B2. Le Sercle
******************************
Total playing time: 37:40



Extended info
Les Fleurs du Mal Productions

Garde Noire collective (France).

Raw, twisted, unholy, grim and terrifying music from this mysterious French collective. Influenced by Les Legions Noires, ABRUPTUM and MONS VENERIS

Tape-rip by Zero


Technical info
(IMG:http://metalarea.org/images/spectrogram/2021_Jan/1e8c5cd9c7caad18f2ab1fb792e6225f.png)
Input File: 02 Décrépitude.mp3
Channels : 2
Sample Rate : 44100
Precision : 16-bit
Duration : 00:06:32.88 = 17326052 samples = 29466.1 CDDA sectors
File Size : 12.6M
Bit Rate : 256k
Sample Encoding: MPEG audio (layer I, II or III)
Comments :
Title=Décrépitude
Artist=Atrium Malum
Album=Spirale Démentielle
Tracknumber=02/5
Year=2019
Genre=Dark Ambient
Discnumber=1/1



Register


Go to the top of the page
  Insert nick Quick quote
+Quote Post
 
Start new topic
Replies (1 - 1)
post Jan 12 2021, 10:56:30
Post #2

Шесть Литров
******
Group: Металариец
Posts: 505
Releases: 21
From: Подольск
On Forums: 12 years 2 weeks
Thanks: 798 time(s)
Russian Federation


ютуб


Thanks:
(1) Occultas,
Go to the top of the page
  Insert nick Quick quote
+Quote Post

Reply to this topicStart new topic
2 User(s) are reading this topic (2 Guests and 0 Anonymous Users)
0 Members:

 



- Lo-Fi Version Support form
Copyrights and abuse reports form
Time is now: 23rd June 2021 - 19:50:08