Welcome Guest ( Log In | Register )

> Malthusian Kommand - Demo Mmxx [demo] (2020), Raw Black Metal
post Jan 11 2021, 03:48:16
Post #1

Правь статус, ####!111
**************
Group: Металариец
Posts: 4,800
Releases: 1472
From: Brazil
On Forums: 9 years 4 months
Thanks: 55034 time(s)
Brazil


(IMG:http://metalarea.org/images/audiocovers/2021_Jan/acov_tid345971_thumb.jpg)

*Artist: Malthusian Kommand
*Album: Demo Mmxx [demo]
*Year: 2020
*Genre: Raw Black Metal
*Country: United States (IMG:http://metalarea.org/forum/style_images/flags/United%20States.png)
*Format: mp3@CBR320kbps
*Size: 28MB

Tracklist:
1. I 03:04
2. II 02:21
3. III 03:10
4. IV 03:08
******************************
Total playing time: 11:43



Technical info
(IMG:http://metalarea.org/images/spectrogram/2021_Jan/be3cbc9b086a44525197503107058316.png)
Input File: 02 II.mp3
Channels : 2
Sample Rate : 44100
Precision : 16-bit
Duration : 00:02:41.92 = 7140452 samples = 12143.6 CDDA sectors
File Size : 6.55M
Bit Rate : 324k
Sample Encoding: MPEG audio (layer I, II or III)
Comments :
Title=II
Artist=Malthusian Kommand
Album=DEMO MMXX
Tracknumber=2
Year=2020



Register


Go to the top of the page
  Insert nick Quick quote
+Quote Post
 
Start new topic
Replies (1 - 2)
post Jan 12 2021, 18:37:38
Post #2

Absorbence
***********
Group: Металариец
Posts: 1,790
Releases: 216
From: Vastland Abyss of Cthulhu
On Forums: 14 years 7 months
Thanks: 3919 time(s)
Canada


very cool
Go to the top of the page
  Insert nick Quick quote
+Quote Post
post Feb 1 2021, 14:04:00
Post #3

добрый мизантроп
**************
Group: Металариец
Posts: 2,237
Releases: 1
From: Минск
On Forums: 10 years 7 months
Thanks: 1041 time(s)
Madagascar


Pure black, saved (IMG:style_emoticons/default/true_black.gif) (IMG:style_emoticons/default/true_black.gif)


Thanks:
(1) WOLAND,
Go to the top of the page
  Insert nick Quick quote
+Quote Post

Reply to this topicStart new topic
2 User(s) are reading this topic (2 Guests and 0 Anonymous Users)
0 Members:

 



- Lo-Fi Version Support form
Copyrights and abuse reports form
Time is now: 20th June 2021 - 23:45:31