Welcome Guest ( Log In | Register )

> Ghriéving - 2017/2019 Discography [compilation] (2019), Black Metal
post Jan 11 2021, 03:52:01
Post #1

Правь статус, ####!111
**************
Group: Металариец
Posts: 4,800
Releases: 1472
From: Brazil
On Forums: 9 years 4 months
Thanks: 55047 time(s)
Brazil


(IMG:http://metalarea.org/images/audiocovers/2021_Jan/acov_tid345972_thumb.jpg)

*Artist: Ghriéving
*Album: 2017/2019 Discography [compilation]
*Year: 2019
*Genre: Black Metal
*Country: Venezuela (IMG:http://metalarea.org/forum/style_images/flags/Venezuela.png)
*Format: mp3@CBR320kbps
*Size: 160MB

Tracklist:
1. Spiritual Arsonism (Pt I)
2. Fvoreliturgiae
3. Πιστεύομεν
4. Speech Of His Envoy
5. The Simonic Coven
6. Crvrifragivm Woe Cathedral
7. Mental Sigil Esoterica
8. Voertigina (Channelization)
9. Oath Of Nervous Paroxysm
10. As The Waxing Moon Became An Egregor...
11. ... And The Sun Becomes Spectral...
******************************
Total playing time: 1:09:45

Extended info
Vigor Deconstruct

CD-rip


Technical info
(IMG:http://metalarea.org/images/spectrogram/2021_Jan/edc35df1d6ff8527dbcb1b8e532423cf.png)
Input File: 04 Speech Of His Envoy.mp3
Channels : 2
Sample Rate : 44100
Precision : 16-bit
Duration : 00:05:13.69 = 13833861 samples = 23527 CDDA sectors
File Size : 12.8M
Bit Rate : 327k
Sample Encoding: MPEG audio (layer I, II or III)
Comments :
Title=Speech Of His Envoy
Artist=Ghriéving
Album=2017/2019 Discography
Tracknumber=04/11
Year=2019
Discnumber=1/2



Register


Go to the top of the page
  Insert nick Quick quote
+Quote Post
 
Start new topic
Replies (1 - 2)
post Jan 12 2021, 08:21:30
Post #2

While Waiting the Worms
**********
Group: Металариец
Posts: 1,319
Releases: 0
On Forums: 7 years 6 months
Thanks: 1983 time(s)
Unknown


\


Thanks:
Go to the top of the page
  Insert nick Quick quote
+Quote Post
post Jan 12 2021, 09:28:28
Post #3

Absorbence
***********
Group: Металариец
Posts: 1,790
Releases: 216
From: Vastland Abyss of Cthulhu
On Forums: 14 years 7 months
Thanks: 3919 time(s)
Canada


шикарно


Thanks:
Go to the top of the page
  Insert nick Quick quote
+Quote Post

Reply to this topicStart new topic
2 User(s) are reading this topic (2 Guests and 0 Anonymous Users)
0 Members:

 



- Lo-Fi Version Support form
Copyrights and abuse reports form
Time is now: 23rd June 2021 - 19:56:07