Welcome Guest ( Log In | Register )

 
Reply to this topicStart new topic
> Vestibulum Vacuüi - Gezalfd In Gal [demo] (2015), Atmospheric Black Metal (D)
post Jan 11 2021, 04:03:22
Post #1

Правь статус, ####!111
**************
Group: Металариец
Posts: 4,800
Releases: 1472
From: Brazil
On Forums: 9 years 4 months
Thanks: 55047 time(s)
Brazil


(IMG:http://metalarea.org/images/audiocovers/2021_Jan/acov_tid345973_thumb.jpg)

*Artist: Vestibulum Vacuüi
*Album: Gezalfd In Gal [demo]
*Year: 2015
*Genre: Atmospheric Black Metal
*Country: Netherlands (IMG:http://metalarea.org/forum/style_images/flags/Netherlands.png)
*Format: mp3@VBR242kbps
*Size: 22MB

Tracklist:
1. Gal I 04:03
2. Gal II 02:35
3. Zalving I 02:39
4. Zalving II 03:16
******************************
Total playing time: 12:33

Extended info
The Throat

Tape-rip by Zero


Technical info
(IMG:http://metalarea.org/images/spectrogram/2021_Jan/71de20a1ca6ecdee8349fb5ae2b1fdd9.png)
Input File: 01 Gal I.mp3
Channels : 2
Sample Rate : 44100
Precision : 16-bit
Duration : 00:04:01.08 = 10631804 samples = 18081.3 CDDA sectors
File Size : 7.28M
Bit Rate : 242k
Sample Encoding: MPEG audio (layer I, II or III)
Comments :
Title=Gal I
Artist=Vestibulum Vacuüi
Album=Gezalfd In Gal
Tracknumber=01/4
Year=2015
Genre=Black Metal
Discnumber=1/1



Register


Go to the top of the page
  Insert nick Quick quote
+Quote Post

Reply to this topicStart new topic
2 User(s) are reading this topic (2 Guests and 0 Anonymous Users)
0 Members:

 



- Lo-Fi Version Support form
Copyrights and abuse reports form
Time is now: 23rd June 2021 - 19:59:03