Welcome Guest ( Log In | Register )

> Absolute Key - My Mortal Share/The Towers [ep] (2020), Experimental Black Metal/Industrial/Ambient/Drone (D6)
post Jan 11 2021, 04:10:53
Post #1

Правь статус, ####!111
**************
Group: Металариец
Posts: 4,800
Releases: 1472
From: Brazil
On Forums: 9 years 4 months
Thanks: 55034 time(s)
Brazil


(IMG:http://metalarea.org/images/audiocovers/2021_Jan/acov_tid345974_thumb.jpg)

*Artist: Absolute Key
*Album: My Mortal Share/The Towers [ep]
*Year: 2020
*Genre: Experimental Black Metal/Industrial/Ambient/Drone
*Country: Finland (IMG:http://metalarea.org/forum/style_images/flags/Finland.png)
*Format: mp3@VBR240kbps
*Size: 18MB

Tracklist:
1. My Mortal Share
2. The Towers
******************************
Total playing time: 9:53



Extended info
Music By: Antti Klemi
See also: Circle of Ouroborus, Mental Terror, Absava


"My Mortal Share / Towers", a seven inch EP by an obscure black metal/noise/industrial artist, Absolute Key, is the work of a sick man. Ridden with a blood disease, A. Klemi, the sole member of the band, faced the gates of the unknown last Autumn, and from those experiences this EP was born.

"My Mortal Share", a mid-tempo piece full of the dirtiest screeches and ethereal wails somewhere between industrial and Summoning, paints a vision of a prisoner: where are the boundaries of our physical and spiritual existence, and is it possible to break these chains in the pressure of the overwhelming universe?

B-side "Towers" is a soundscape of Above and Below, a man's never ending quest for truth and rebellion. How can we rip the heavens apart when our hands are tied by our own materialism? Musically Towers is a more abstract piece of work, combining slow rhythms, religious sound imagery and agonizing screams – being a modern psalm, perhaps?


Vinyl-rip by Zero


Technical info
(IMG:http://metalarea.org/images/spectrogram/2021_Jan/b9ce3ad697ceedf7ac971164109562a4.png)
Input File: 01 My Mortal Share.mp3
Channels : 2
Sample Rate : 44100
Precision : 16-bit
Duration : 00:05:30.42 = 14571610 samples = 24781.6 CDDA sectors
File Size : 9.59M
Bit Rate : 232k
Sample Encoding: MPEG audio (layer I, II or III)
Comments :
Title=My Mortal Share
Artist=Absolute Key
Album=My Mortal Share//The Towers
Tracknumber=01/2
Year=2020
Genre=Black Metal, Industrial, Ambient, Drone
Discnumber=1/1



Register


Go to the top of the page
  Insert nick Quick quote
+Quote Post
 
Start new topic
Replies (1 - 2)
post Jan 12 2021, 11:47:41
Post #2

0%Tolerance
**********
Group: Металариец
Posts: 1,045
Releases: 0
On Forums: 8 years 9 months
Thanks: 188 time(s)
Unknown


Карканье под набор звуков, псевдоэкспериментальное.
Go to the top of the page
  Insert nick Quick quote
+Quote Post
post Jan 13 2021, 12:15:55
Post #3

градусы контрастов
**************
Group: Металариец
Posts: 5,013
Releases: 0
On Forums: 5 years 4 months
Thanks: 3240 time(s)
Unknown


тот же CoO, только почему то не CoO.
Go to the top of the page
  Insert nick Quick quote
+Quote Post

Reply to this topicStart new topic
2 User(s) are reading this topic (2 Guests and 0 Anonymous Users)
0 Members:

 



- Lo-Fi Version Support form
Copyrights and abuse reports form
Time is now: 20th June 2021 - 22:05:26