Welcome Guest ( Log In | Register )

 
Reply to this topicStart new topic
> Gruesomealtar - Beast Ferocious With Hunger [demo] (2020), Raw Black Metal
post Jan 11 2021, 04:14:45
Post #1

Правь статус, ####!111
**************
Group: Металариец
Posts: 4,800
Releases: 1472
From: Brazil
On Forums: 9 years 4 months
Thanks: 55046 time(s)
Brazil


(IMG:http://metalarea.org/images/audiocovers/2021_Jan/acov_tid345975_thumb.jpg)

*Artist: Gruesomealtar
*Album: Beast Ferocious With Hunger [demo]
*Year: 2020
*Genre: Raw Black Metal
*Country: United States (IMG:http://metalarea.org/forum/style_images/flags/United%20States.png)
*Format: mp3@VBR270kbps
*Size: 14MB

Tracklist:
1. Untitled 00:49
2. Untitled 01:49
3. Untitled 02:35
4. Untitled 02:20
******************************
Total playing time: 7:33

(IMG:http://metalarea.org/images/youtube.png)

Extended info
Spiritual Disease

Gnarly Black Metal of Death, with definite Punk-ish traits, somewhat in the vein of Beherit, Necromonarchia Daemonum , Baphomancia, Bestial Summoning, etc,
Crushing sound reeking of filth and rot.

Tape-rip by Zero


Technical info
(IMG:http://metalarea.org/images/spectrogram/2021_Jan/f54eab238540b70e59f067ec20d9edec.png)
Input File: 02 Untitled.mp3
Channels : 2
Sample Rate : 44100
Precision : 16-bit
Duration : 00:01:46.74 = 4707058 samples = 8005.2 CDDA sectors
File Size : 3.84M
Bit Rate : 288k
Sample Encoding: MPEG audio (layer I, II or III)
Comments :
Title=Untitled
Artist=Gruesomealtar
Album=Beast Ferocious With Hunger
Tracknumber=02/4
Year=2020
Genre=Black Metal
Discnumber=1/1



Register


Go to the top of the page
  Insert nick Quick quote
+Quote Post

Reply to this topicStart new topic
2 User(s) are reading this topic (2 Guests and 0 Anonymous Users)
0 Members:

 



- Lo-Fi Version Support form
Copyrights and abuse reports form
Time is now: 23rd June 2021 - 18:03:16