Welcome Guest ( Log In | Register )

 
Reply to this topicStart new topic
> Torpefied Bloodlust - Promo 2020 [demo] (2020), Raw Black Metal
post Jan 11 2021, 04:21:12
Post #1

Правь статус, ####!111
**************
Group: Металариец
Posts: 4,800
Releases: 1472
From: Brazil
On Forums: 9 years 4 months
Thanks: 55046 time(s)
Brazil


(IMG:http://metalarea.org/images/audiocovers/2021_Jan/acov_tid345976_thumb.jpg)

*Artist: Torpefied Bloodlust
*Album: Promo 2020 [demo]
*Year: 2020
*Genre: Raw Black Metal
*Country: Unknown (IMG:http://metalarea.org/forum/style_images/flags/Unknown.png)
*Format: mp3@CBR320kbps
*Size: 21MB

Tracklist:
1. I
2. II
3. III
4. IV
******************************
Total playing time: 9:08

(IMG:http://metalarea.org/images/youtube.png)

Extended info
Debut demo from this mysterious project.
Raw Black Metal with a Death Metal edge to it, although drenched with filth and grime.

Released on CDr via Death's Radiance.

CD-rip


Technical info
(IMG:http://metalarea.org/images/spectrogram/2021_Jan/8ac8587aefd818c36336312ad0e3e55e.png)
Input File: 02 II.mp3
Channels : 2
Sample Rate : 44100
Precision : 16-bit
Duration : 00:02:26.59 = 6464443 samples = 10994 CDDA sectors
File Size : 5.95M
Bit Rate : 325k
Sample Encoding: MPEG audio (layer I, II or III)
Comments :
Title=II
Artist=Torpefied Bloodlust
Album=Promo 2020
Tracknumber=02/4
Year=2020
Genre=Black Metal
Discnumber=1/1



Register


Go to the top of the page
  Insert nick Quick quote
+Quote Post

Reply to this topicStart new topic
2 User(s) are reading this topic (2 Guests and 0 Anonymous Users)
0 Members:

 



- Lo-Fi Version Support form
Copyrights and abuse reports form
Time is now: 23rd June 2021 - 18:06:25