Welcome Guest ( Log In | Register )

> Black Spirit - In A Vortex To The Infinite Night/Behind The Light That Fades [compilation] (2019), Black Metal
post Jan 11 2021, 04:27:32
Post #1

Правь статус, ####!111
**************
Group: Металариец
Posts: 4,800
Releases: 1472
From: Brazil
On Forums: 9 years 4 months
Thanks: 55046 time(s)
Brazil


(IMG:http://metalarea.org/images/audiocovers/2021_Jan/acov_tid345977_thumb.jpg)

*Artist: Black Spirit
*Album: In A Vortex To The Infinite Night/Behind The Light That Fades [compilation]
*Year: 2019
*Genre: Black Metal
*Country: Spain (IMG:http://metalarea.org/forum/style_images/flags/Spain.png)
*Format: mp3@VBR285kbps
*Size: 75MB

Tracklist:
1. On the Threshold of Unconsciousness
2. In Vortex to Infinite Blackness
3. A Terrifying Mystery Underlies
4. Night Without Origin or End
5. Behind the Light That Fades
6. The Descent
7. The White Dyed Black
8. Mystical Infinity
******************************
Total playing time: 36:01

Extended info
Signal Rex

Side A was originally released as the In A Vortex To The Infinite Night demo cassette.
Side B was originally released as the Behind The Light That Fades demo cassette.

Vinyl-rip by Zero


Technical info
(IMG:http://metalarea.org/images/spectrogram/2021_Jan/bfd60a869780be249ce2004e0501545b.png)
Input File: 03 A Terrifying Mystery Underlies.mp3
Channels : 2
Sample Rate : 44100
Precision : 16-bit
Duration : 00:05:01.82 = 13310174 samples = 22636.4 CDDA sectors
File Size : 11.7M
Bit Rate : 310k
Sample Encoding: MPEG audio (layer I, II or III)
Comments :
Title=A Terrifying Mystery Underlies
Artist=Black Spirit
Album=In A Vortex To The Infinite Night / Behind The Light That Fades
Tracknumber=03/8
Year=2019
Genre=Black Metal
Discnumber=1/1



Register


Go to the top of the page
  Insert nick Quick quote
+Quote Post
 
Start new topic
Replies (1 - 2)
post Jan 12 2021, 16:04:53
Post #2

While Waiting the Worms
**********
Group: Металариец
Posts: 1,319
Releases: 0
On Forums: 7 years 6 months
Thanks: 1983 time(s)
Unknown




Thanks:
Go to the top of the page
  Insert nick Quick quote
+Quote Post
post Jan 12 2021, 18:38:30
Post #3

Absorbence
***********
Group: Металариец
Posts: 1,790
Releases: 216
From: Vastland Abyss of Cthulhu
On Forums: 14 years 7 months
Thanks: 3919 time(s)
Canada


good stuff


Thanks:
(1) Storky,
Go to the top of the page
  Insert nick Quick quote
+Quote Post

Reply to this topicStart new topic
2 User(s) are reading this topic (2 Guests and 0 Anonymous Users)
0 Members:

 



- Lo-Fi Version Support form
Copyrights and abuse reports form
Time is now: 23rd June 2021 - 18:10:25