Welcome Guest ( Log In | Register )

> Moraš - Clandescent Ceremonies In Obeisance To The Unsung [compilation] (2020), Black Metal (D)
post Jan 11 2021, 04:34:41
Post #1

Правь статус, ####!111
**************
Group: Металариец
Posts: 4,800
Releases: 1472
From: Brazil
On Forums: 9 years 4 months
Thanks: 55046 time(s)
Brazil


(IMG:http://metalarea.org/images/audiocovers/2021_Jan/acov_tid345978_thumb.jpg)

*Artist: Moraš
*Album: Clandescent Ceremonies In Obeisance To The Unsung [compilation]
*Year: 2020
*Genre: Black Metal
*Country: Finland (IMG:http://metalarea.org/forum/style_images/flags/Finland.png)
*Format: mp3@VBR260kbps
*Size: 135MB

Tracklist:
1. Gateway to Cessation
2. Evoking The Unhuman Entities
3. Languishing In Depths of Sorrow
4. Caged In Flesh
5. Mourning
6. Untitled
7. Untitled
8. Untitled
9. Untitled
10. Untitled
11. Lair Of The Inanimated
12. Soulless Watchers
13. Binded Into Eternity
14. Untitled
15. Untitled
16. Untitled
******************************
Total playing time: 1:12:12

Extended info
Archaic Memories
2 × Cassette, Compilation, Limited Edition, Reissue

x2 Pro tapes inclusing demos Manifest Death and Gaze of the Void plus material taken from split with UVSS and the Ossuary Vol.1 compilation and some unreleaed material.

Tape-rip by Zero


Technical info
(IMG:http://metalarea.org/images/spectrogram/2021_Jan/28176aa5c9f4931ef6f6fb6ef15be9c1.png)
Input File: 03 Languishing In Depths Of Sorrow.mp3
Channels : 2
Sample Rate : 44100
Precision : 16-bit
Duration : 00:05:47.72 = 15334232 samples = 26078.6 CDDA sectors
File Size : 12.5M
Bit Rate : 289k
Sample Encoding: MPEG audio (layer I, II or III)
Comments :
Title=Languishing In Depths Of Sorrow
Artist=Moraš
Album=Clandescent Ceremonies In Obeisance To The Unsung
Tracknumber=3/16
Year=2020
Genre=Black Metal
Discnumber=1/1



Register


Go to the top of the page
  Insert nick Quick quote
+Quote Post
 
Start new topic
Replies (1 - 2)
post Jan 12 2021, 11:16:00
Post #2

Шесть Литров
******
Group: Металариец
Posts: 505
Releases: 21
From: Подольск
On Forums: 12 years 2 weeks
Thanks: 798 time(s)
Russian Federation


ютуб
Go to the top of the page
  Insert nick Quick quote
+Quote Post
post Jan 13 2021, 19:30:37
Post #3

Absorbence
***********
Group: Металариец
Posts: 1,790
Releases: 216
From: Vastland Abyss of Cthulhu
On Forums: 14 years 7 months
Thanks: 3919 time(s)
Canada


very decent release liked it
Go to the top of the page
  Insert nick Quick quote
+Quote Post

Reply to this topicStart new topic
2 User(s) are reading this topic (2 Guests and 0 Anonymous Users)
0 Members:

 



- Lo-Fi Version Support form
Copyrights and abuse reports form
Time is now: 23rd June 2021 - 18:17:24