Welcome Guest ( Log In | Register )

> Aym - Buried, Forgotten [demo] (2019), Black Metal
post Jan 11 2021, 04:41:05
Post #1

Правь статус, ####!111
**************
Group: Металариец
Posts: 4,800
Releases: 1472
From: Brazil
On Forums: 9 years 4 months
Thanks: 55034 time(s)
Brazil


(IMG:http://metalarea.org/images/audiocovers/2021_Jan/acov_tid345979_thumb.jpg)

*Artist: Aym
*Album: Buried, Forgotten [demo]
*Year: 2019
*Genre: Black Metal
*Country: Finland (IMG:http://metalarea.org/forum/style_images/flags/Finland.png)
*Format: mp3@VBR265kbps
*Size: 27MB

Tracklist:
1. I
2. II
3. III
******************************
Total playing time: 14:04

Extended info
Gramschap

Tape-rip by Zero


Technical info
(IMG:http://metalarea.org/images/spectrogram/2021_Jan/cf155d3da91b736cea58e9f5fd6e69e3.png)
Input File: 01 I.mp3
Channels : 2
Sample Rate : 44100
Precision : 16-bit
Duration : 00:04:10.64 = 11053400 samples = 18798.3 CDDA sectors
File Size : 8.68M
Bit Rate : 277k
Sample Encoding: MPEG audio (layer I, II or III)
Comments :
Title=I
Artist=AYM
Album=Buried, Forgotten
Tracknumber=1/3
Year=2019
Genre=Black Metal
Discnumber=1/1



Register


Go to the top of the page
  Insert nick Quick quote
+Quote Post
 
Start new topic
Replies (1 - 2)
post Jan 13 2021, 12:21:46
Post #2

градусы контрастов
**************
Group: Металариец
Posts: 5,013
Releases: 0
On Forums: 5 years 4 months
Thanks: 3240 time(s)
Unknown


стремительная и бескомпромиссная сырятина, понравилось.


Thanks:
(1) Sangreal,
Go to the top of the page
  Insert nick Quick quote
+Quote Post
post Feb 2 2021, 13:07:44
Post #3

добрый мизантроп
**************
Group: Металариец
Posts: 2,237
Releases: 1
From: Минск
On Forums: 10 years 7 months
Thanks: 1041 time(s)
Madagascar


(IMG:style_emoticons/default/true_black.gif) (IMG:style_emoticons/default/true_black.gif) (IMG:style_emoticons/default/true_black.gif) TRVE
Go to the top of the page
  Insert nick Quick quote
+Quote Post

Reply to this topicStart new topic
2 User(s) are reading this topic (2 Guests and 0 Anonymous Users)
0 Members:

 



- Lo-Fi Version Support form
Copyrights and abuse reports form
Time is now: 20th June 2021 - 22:04:25