Welcome Guest ( Log In | Register )

 
Reply to this topicStart new topic
> Kêres - Xxi/Xxii/Xxiii [compilation] (2020), Black Metal
post Jan 11 2021, 04:46:37
Post #1

Правь статус, ####!111
**************
Group: Металариец
Posts: 4,800
Releases: 1472
From: Brazil
On Forums: 9 years 4 months
Thanks: 55046 time(s)
Brazil


(IMG:http://metalarea.org/images/audiocovers/2021_Jan/acov_tid345980_thumb.jpg)

*Artist: Kêres
*Album: Xxi/Xxii/Xxiii [compilation]
*Year: 2020
*Genre: Black Metal
*Country: Finland (IMG:http://metalarea.org/forum/style_images/flags/Finland.png)
*Format: mp3@VBR240kbps
*Size: 69MB

Tracklist:
1. Bones from the Well
2. Fall to the Underworld
3. Back Together
4. Future Shadow
5. Lost to the Jaws of Time
6. Luniolatry
7. Calaeno's Arms
8. A Beast Dies
9. Suomujen syleilyyn
10. Salaisuus sisimassa
11. Surman siemen
******************************
Total playing time: 39:45

Extended info
Tracks A1-A3 from Lies From The Gutter Demo XXI
Tracks A4-B2 from Hearse To The Church Demo XXII
Tracks B3-B5 from Sumuksi Syvyyteen Demo XXIII


Satanik Requiem
Co-released with Vermines Pestifera.


Technical info
(IMG:http://metalarea.org/images/spectrogram/2021_Jan/f10829c1ea849158ad8d2e622f6b6481.png)
Input File: 04 Future Shadow.mp3
Channels : 2
Sample Rate : 44100
Precision : 16-bit
Duration : 00:02:27.54 = 6506470 samples = 11065.4 CDDA sectors
File Size : 4.73M
Bit Rate : 257k
Sample Encoding: MPEG audio (layer I, II or III)
Comments :
Title=Future Shadow
Artist=Kêres
Album=XXI / XXII / XXIII
Tracknumber=4
Year=2020
Genre=Black Metal
Discnumber=1/1



Register


Go to the top of the page
  Insert nick Quick quote
+Quote Post

Reply to this topicStart new topic
2 User(s) are reading this topic (2 Guests and 0 Anonymous Users)
0 Members:

 



- Lo-Fi Version Support form
Copyrights and abuse reports form
Time is now: 23rd June 2021 - 19:15:15