Welcome Guest ( Log In | Register )

> Bhleg - Ödhin (2021), Black Metal (D)
post Jan 14 2021, 18:21:43
Post #1

Правь статус, ####!111
**************
Group: Металариец
Posts: 7,293
Releases: 6670
From: Одесса
On Forums: 15 years 9 months
Thanks: 77663 time(s)
Ukraine


(IMG:http://metalarea.org/images/audiocovers/2021_Jan/acov_tid346065_thumb.jpg)

*Artist: Bhleg
*Album: Ödhin
*Year: 2021
*Genre: Black Metal
*Country: Sweden (IMG:http://metalarea.org/forum/style_images/flags/Sweden.png)
*Format: mp3@CBR320kbps
*Size: 112MB

Tracklist:
1. Vyss 09:16
2. Alyr III 08:56
3. Gyllene gal 05:12
4. Slukad sol 10:18
5. Ödet 08:36
6. Drömmen om vårdträdet 04:34
******************************
Total playing time: 46:52



Extended info
Line - up:

L. - Bass, Vocals (lead, backing, screams, whispers) (ex-Ljuset)
S. - Guitars, Keyboards, Vocals (backing, screams, whispers), Percussion (handdrums, bones) (ex-Ljuset)

(IMG:https://f4.bcbits.com/img/0023189873_10.jpg)


Technical info
(IMG:http://metalarea.org/images/spectrogram/2021_Jan/644ab700d607e5c681f735d25ffd8342.png)
Input File: 02 - Alyr III.mp3
Channels : 2
Sample Rate : 44100
Precision : 16-bit
Duration : 00:08:56.00 = 23637600 samples = 40200 CDDA sectors
File Size : 21.5M
Bit Rate : 321k
Sample Encoding: MPEG audio (layer I, II or III)
Comments :
Title=Alyr III
Artist=Bhleg
Album=Ödhin
Tracknumber=2
Year=2021-15-01
Genre=138



Register


Go to the top of the page
  Insert nick Quick quote
+Quote Post
 
Start new topic
Replies (1 - 10)
post Jan 16 2021, 20:13:47
Post #2

кручу наждак
**************
Group: Металариец
Posts: 6,432
Releases: 109
From: Самара
On Forums: 13 years 9 months
Thanks: 4968 time(s)
Russian Federation


Вопиющая посредственность.


Thanks:
(1) cesar,
Go to the top of the page
  Insert nick Quick quote
+Quote Post
post Jan 18 2021, 17:21:07
Post #3

Common dweller of hell
**************
Group: Металариец
Posts: 5,256
Releases: 12
From: Dnipro
On Forums: 15 years 7 months
Thanks: 2125 time(s)
Ukraine


ЦИТАТА(judaz @ Jan 16 2021, 21:13:47) *
Вопиющая посредственность.

пьющая посредственность (IMG:style_emoticons/default/25.gif)


Thanks:
(1) cesar,
Go to the top of the page
  Insert nick Quick quote
+Quote Post
post Jan 19 2021, 11:56:40
Post #4

Маньяк
**********
Group: Металариец
Posts: 1,121
Releases: 4
From: Харьков
On Forums: 15 years 6 months
Thanks: 416 time(s)
Ukraine


поющая посредственность


Thanks:
(1) cesar,
Go to the top of the page
  Insert nick Quick quote
+Quote Post
post Jan 19 2021, 19:13:44
Post #5

Три Литра
***
Group: Завсегдатай
Posts: 222
Releases: 0
On Forums: 3 years 1 month
Thanks: 228 time(s)
Russian Federation


Плюшевая посредственность


Thanks:
(1) cesar,
Go to the top of the page
  Insert nick Quick quote
+Quote Post
post Feb 1 2021, 19:50:23
Post #6

brutalcesar
**************
Group: Металариец
Posts: 18,774
Releases: 77
From: Рязань
On Forums: 15 years 1 month
Thanks: 11205 time(s)
Russian Federation


Вопящая посредственность!
Go to the top of the page
  Insert nick Quick quote
+Quote Post
post Feb 1 2021, 20:13:14
Post #7

brutalcesar
**************
Group: Металариец
Posts: 18,774
Releases: 77
From: Рязань
On Forums: 15 years 1 month
Thanks: 11205 time(s)
Russian Federation


Хотя на самом деле всё нормально. Не гениально и не сражает наповал, но право на существование имеет))
Go to the top of the page
  Insert nick Quick quote
+Quote Post
post Sep 29 2021, 18:16:17
Post #8

Литр
*
Group: Подсевший
Posts: 50
Releases: 0
On Forums: 17 years 10 months
Thanks: 5 time(s)
Russian Federation


Перезалейте пожалусто
Go to the top of the page
  Insert nick Quick quote
+Quote Post
post Jan 10 2022, 13:53:02
Post #9

Pulling the trigger I m feeling so free
**************
Group: Металариец
Posts: 2,907
Releases: 78
From: Technical Death из 90-х
On Forums: 13 years 7 months
Thanks: 8805 time(s)
Unknown


Размеренно и как-то по ламповому душевно, неплохо!
Register


(IMG:style_emoticons/default/20.gif)


Go to the top of the page
  Insert nick Quick quote
+Quote Post
post Jan 10 2022, 14:57:14
Post #10

Два Литра
**
Group: Завсегдатай
Posts: 151
Releases: 0
On Forums: 13 years 8 months
Thanks: 96 time(s)
Russian Federation


Бомж так кашляет в падике.
Go to the top of the page
  Insert nick Quick quote
+Quote Post
post Nov 13 2023, 22:24:47
Post #11

Правь статус, ####!111
**************
Group: Металариец
Posts: 5,168
Releases: 1566
From: Brazil
On Forums: 12 years 1 month
Thanks: 63692 time(s)
Brazil


Register

Register


Thanks:
(1) Wail,
Go to the top of the page
  Insert nick Quick quote
+Quote Post

Reply to this topicStart new topic
2 User(s) are reading this topic (2 Guests and 0 Anonymous Users)
0 Members:

 



- Lo-Fi Version Support form
Copyrights and abuse reports form
Time is now: 3rd March 2024 - 07:07:49