Welcome Guest ( Log In | Register )

> Rvbber Vvitch - Mastvrbations Malveillantes Mmxvii (2019), Industrial Black Metal
post Jan 16 2021, 18:43:02
Post #1

Правь статус, ####!616
**************
Group: Металариец
Posts: 6,642
Releases: 5111
From: 55°35’N 38°08’E
On Forums: 13 years 3 weeks
Thanks: 94048 time(s)
Unknown


(IMG:https://metalarea.org/images/audiocovers/2021_Jan/acov_tid346151_thumb.jpg)

*Artist: Rvbber Vvitch
*Album: Mastvrbations Malveillantes Mmxvii
*Year: 2019
*Genre: Industrial Black Metal
*Country: Canada (IMG:https://metalarea.org/forum/style_images/flags/Canada.png)
*Format: mp3@CBR320kbps
*Size: 108MB

Tracklist:
1.Sous l'oeil du Maitre Infernal 07:58
2.Majeste Divine 07:19
3.Adoration de Satan 07:47
4.Marquis du Sombre Empire 09:55
5.Gloire Maufait! 09:58
6.La Fiancee du Diable 04:14
******************************
Total playing time: 47:11

(IMG:https://metalarea.org/images/youtube.png)


Technical info
(IMG:https://metalarea.org/images/spectrogram/2021_Jan/c1c6ad121fb916d35be8e405e731d37e.png)
Input File: 01 Sous l\'oeil du Maitre Infernal.mp3
Channels : 2
Sample Rate : 44100
Precision : 16-bit
Duration : 00:07:58.62 = 21107098 samples = 35896.4 CDDA sectors
File Size : 19.2M
Bit Rate : 322k
Sample Encoding: MPEG audio (layer I, II or III)
Comments :
Title=Sous l'oeil du Maitre Infernal
Artist=RVBBER VVITCH
Album=Mastvrbations Malveillantes MMXVII
Tracknumber=1
Year=2021
Genre=Industrial Black Metal



Register


Go to the top of the page
  Insert nick Quick quote
+Quote Post
 
Start new topic
Replies (1 - 5)
post Jan 19 2021, 13:22:13
Post #2

Шесть Литров
******
Group: Металариец
Posts: 501
Releases: 0
From: Москва
On Forums: 14 years 9 months
Thanks: 111 time(s)
Russian Federation


Действительно Mastvrbations, не тратьте время на прослушивание.


Thanks:
Go to the top of the page
  Insert nick Quick quote
+Quote Post
post Jan 20 2021, 12:26:30
Post #3

0%Tolerance
**********
Group: Металариец
Posts: 1,171
Releases: 0
On Forums: 8 years 10 months
Thanks: 208 time(s)
Unknown


Генератор случайных ЫндастрЫаНАльных звуков.
Go to the top of the page
  Insert nick Quick quote
+Quote Post
post Jan 21 2021, 00:37:25
Post #4

Два Литра
**
Group: Завсегдатай
Posts: 110
Releases: 0
From: Україна, Київ
On Forums: 14 years 9 months
Thanks: 20 time(s)
Ukraine


Такое шото.
3 из 5ти...
Go to the top of the page
  Insert nick Quick quote
+Quote Post
post Feb 13 2021, 19:34:00
Post #5

...Only Death Is Real...
**************
Group: Металариец
Posts: 2,967
Releases: 19
On Forums: 11 years 1 week
Thanks: 1979 time(s)
Antarctica


ЦИТАТА(Сварог Барг @ Jan 19 2021, 17:22:13) *
Действительно Mastvrbations, не тратьте время на прослушивание.

ЦИТАТА(Vitald @ Jan 20 2021, 16:26:30) *
Генератор случайных ЫндастрЫаНАльных звуков.

ЦИТАТА(kordi @ Jan 21 2021, 04:37:25) *
Такое шото.
3 из 5ти...

Там вам новый Aborym подогнали. (IMG:style_emoticons/default/bye.gif)
PS А мне по превью понравился этот релиз. Надо будет внимательней ознакомиться. (IMG:style_emoticons/default/20.gif)


Thanks:
(1) Occultas,
Go to the top of the page
  Insert nick Quick quote
+Quote Post
post Feb 13 2021, 19:39:12
Post #6

Восемь Литров
********
Group: Металариец
Posts: 834
Releases: 2
On Forums: 2 years 1 month
Thanks: 631 time(s)
Russian Federation


Нормас чернушно-индустриальный аудиотеррор.


Thanks:
(1) Occultas,
Go to the top of the page
  Insert nick Quick quote
+Quote Post

Reply to this topicStart new topic
2 User(s) are reading this topic (2 Guests and 0 Anonymous Users)
0 Members:

 



- Lo-Fi Version Support form
Copyrights and abuse reports form
Time is now: 1st August 2021 - 10:46:11