Welcome Guest ( Log In | Register )

> И неформату есть предел.

Рэп/хип-хоп/шансон/поп удаляются. Для них есть свои порталы.

 
Reply to this topicStart new topic
> Pestpocken - Another World Is Possible (2020), Punk
post Jan 18 2021, 04:19:59
Post #1

Четыре Литра
****
Group: Металариец
Posts: 386
Releases: 17
On Forums: 7 years 7 months
Thanks: 723 time(s)
Iceland


(IMG:http://metalarea.org/images/audiocovers/2021_Jan/acov_tid346227_thumb.jpg)

*Artist: Pestpocken
*Album: Another World Is Possible
*Year: 2020
*Genre: Punk
*Country: Germany (IMG:http://metalarea.org/forum/style_images/flags/Germany.png)
*Format: mp3@CBR320kbps
*Size: 89MB

Tracklist:
1. Wir stehen wieder auf
2. Another World Is Possible
3. Battle Of Cable Street
4. Über 20 Jahre
5. A Struggle For The Whole
6. The Winner Takes It All
7. Generation Me
8. Against It
9. Treibsand
10. Die Welt steht Kopf
11. Wie ein Faustschlag
12. Welcome To Germany
13. Don't Talk 2 Police
******************************
Total playing time: 36:54


(IMG:http://metalarea.org/images/youtube.png)

Technical info
(IMG:http://metalarea.org/images/spectrogram/2021_Jan/ba5ec5a5e3f8992fdccbe1be8256292c.png)
Input File: 12 - Welcome To Germany.mp3
Channels : 2
Sample Rate : 44100
Precision : 16-bit
Duration : 00:02:46.05 = 7322629 samples = 12453.5 CDDA sectors
File Size : 7.06M
Bit Rate : 340k
Sample Encoding: MPEG audio (layer I, II or III)
Comments :
Title=Welcome To Germany
Artist=Pestpocken
Album=Another World Is Possible
Year=2020



Register


Go to the top of the page
  Insert nick Quick quote
+Quote Post

Reply to this topicStart new topic
1 User(s) are reading this topic (1 Guests and 0 Anonymous Users)
0 Members:

 



- Lo-Fi Version Support form
Copyrights and abuse reports form
Time is now: 21st April 2021 - 12:28:19