Welcome Guest ( Log In | Register )

> И неформату есть предел.

Рэп/хип-хоп/шансон/поп удаляются. Для них есть свои порталы.

 
Reply to this topicStart new topic
> Kotzreiz - Nüchtern Unerträglich (2020), Punk
post Jan 18 2021, 04:29:07
Post #1

Четыре Литра
****
Group: Металариец
Posts: 386
Releases: 17
On Forums: 7 years 7 months
Thanks: 723 time(s)
Iceland


(IMG:http://metalarea.org/images/audiocovers/2021_Jan/acov_tid346228_thumb.jpg)

*Artist: Kotzreiz
*Album: Nüchtern Unerträglich
*Year: 2020
*Genre: Punk
*Country: Germany (IMG:http://metalarea.org/forum/style_images/flags/Germany.png)
*Format: mp3@CBR320kbps
*Size: 53MB

Tracklist:
1. Dusty
2. Nüchtern unerträglich
3. Wer is wieder da
4. Toilettenstern
5. Eiskalte Ohren
6. Punkboys Don't Cry
7. Ratten im System
8. Sambuca Beach
9. Nix zu verliern
10. Ich bin ein Wrack
11. Der räudige Aal
******************************
Total playing time: 23:36


(IMG:http://metalarea.org/images/youtube.png)

Technical info
(IMG:http://metalarea.org/images/spectrogram/2021_Jan/18663be21971c242ea3e6460f2dcdd7c.png)
Input File: 04 - Toilettenstern (feat. Emilie Krawall).mp3
Channels : 2
Sample Rate : 44100
Precision : 16-bit
Duration : 00:02:12.22 = 5830726 samples = 9916.2 CDDA sectors
File Size : 5.71M
Bit Rate : 345k
Sample Encoding: MPEG audio (layer I, II or III)
Comments :
Title=Toilettenstern (feat. Emilie Krawall)
Artist=Kotzreiz
Album=Nüchtern unerträglich
Year=2020



Register


Go to the top of the page
  Insert nick Quick quote
+Quote Post

Reply to this topicStart new topic
1 User(s) are reading this topic (1 Guests and 0 Anonymous Users)
0 Members:

 



- Lo-Fi Version Support form
Copyrights and abuse reports form
Time is now: 21st April 2021 - 12:08:48